<?xml version="1.0" standalone="no"?>
<!DOCTYPE svg PUBLIC "-//W3C//DTD SVG 1.1//EN" "http://www.w3.org/Graphics/SVG/1.1/DTD/svg11.dtd" >
<svg xmlns="http://www.w3.org/2000/svg">
<metadata></metadata>
<defs>
<font id="proxima_novalight_italic" horiz-adv-x="1169" >
<font-face units-per-em="2048" ascent="1618" descent="-430" />
<missing-glyph horiz-adv-x="530" />
<glyph unicode="&#xfb01;" horiz-adv-x="978" d="M90 0l199 895h-164l20 94h164l19 90q68 307 307 307q92 0 156 -43l-46 -77q-38 28 -108 28q-82 0 -129.5 -54t-71.5 -161l-20 -90h200l-20 -94h-201l-198 -895h-107zM598 0l219 989h107l-219 -989h-107zM838 1217q0 39 28.5 64.5t63.5 25.5q32 0 53 -21t21 -51 q0 -39 -29 -64.5t-64 -25.5q-31 0 -52 21.5t-21 50.5z" />
<glyph unicode="&#xfb02;" horiz-adv-x="978" d="M90 0l199 895h-164l20 94h164l19 90q68 307 307 307q92 0 156 -43l-46 -77q-38 28 -108 28q-82 0 -129.5 -54t-71.5 -161l-20 -90h200l-20 -94h-201l-198 -895h-107zM598 0l301 1366h107l-301 -1366h-107z" />
<glyph horiz-adv-x="0" />
<glyph horiz-adv-x="0" />
<glyph horiz-adv-x="682" />
<glyph unicode="&#xd;" horiz-adv-x="0" />
<glyph unicode=" "  horiz-adv-x="530" />
<glyph unicode="&#x09;" horiz-adv-x="530" />
<glyph unicode="&#xa0;" horiz-adv-x="530" />
<glyph unicode="!" horiz-adv-x="448" d="M39 63q0 40 28.5 68.5t69.5 28.5q34 0 58 -24.5t24 -59.5q0 -40 -29 -68t-69 -28q-35 0 -58.5 24t-23.5 59zM150 356l196 1010h137l-250 -1010h-83z" />
<glyph unicode="&#x22;" horiz-adv-x="649" d="M242 874q47 393 51 422q3 40 26.5 65t59.5 25q27 0 46 -19t19 -48q0 -1 -10 -41l-133 -404h-59zM510 874q47 393 51 422q3 40 26.5 65t59.5 25q28 0 47 -19t19 -48q0 -19 -11 -41l-133 -404h-59z" />
<glyph unicode="#" horiz-adv-x="1185" d="M23 381l43 84h229l244 436h-230l41 84h236l209 381h96l-209 -381h240l208 381h99l-213 -381h227l-41 -84h-231l-246 -436h238l-43 -84h-238l-211 -381h-98l213 381h-242l-211 -381h-96l213 381h-227zM391 465h238l245 436h-239z" />
<glyph unicode="$" horiz-adv-x="1196" d="M53 215l86 84q56 -79 140.5 -133t187.5 -74l127 567q-64 28 -103.5 47t-91 52t-80.5 65.5t-50 80.5t-21 104q0 157 134 269t327 112q23 0 47 -3l41 187h94l-45 -199q110 -22 197 -74t137 -124l-88 -82q-90 132 -269 174l-114 -516q62 -27 104 -47.5t93 -54t81 -68 t51 -83.5t21 -106q0 -62 -19.5 -122t-60 -113.5t-97 -94t-136 -64.5t-171.5 -24q-26 0 -40 2l-39 -182h-95l43 193q-132 22 -236 82.5t-155 144.5zM375 1020q0 -41 18.5 -75t56.5 -62.5t76 -48.5t97 -46l108 492q-10 2 -33 2q-133 0 -228 -79.5t-95 -182.5zM559 82h27 q87 0 156 27.5t108.5 71.5t59.5 95t20 103q0 44 -19 81t-57 67t-77 51.5t-97 46.5z" />
<glyph unicode="%" horiz-adv-x="1474" d="M152 0l1173 1366h94l-1175 -1366h-92zM184 989q0 173 106.5 285t252.5 112q125 0 210 -76t85 -196q0 -173 -106.5 -285t-252.5 -112q-125 0 -210 75.5t-85 196.5zM279 997q0 -88 57.5 -145t146.5 -57q104 0 182 90t78 219q0 88 -57.5 145.5t-146.5 57.5 q-105 0 -182.5 -89.5t-77.5 -220.5zM715 250q0 173 106.5 285t251.5 112q127 0 212 -76.5t85 -197.5q0 -173 -106.5 -285.5t-251.5 -112.5q-126 0 -211.5 77t-85.5 198zM811 258q0 -88 57.5 -145.5t145.5 -57.5q105 0 182.5 89.5t77.5 220.5q0 87 -58 144.5t-145 57.5 q-105 0 -182.5 -89.5t-77.5 -219.5z" />
<glyph unicode="&#x26;" horiz-adv-x="1308" d="M43 309q0 65 15 120.5t44.5 99.5t64.5 79.5t84.5 66.5t94 53.5t103.5 47.5q-52 132 -52 244q0 149 108.5 257.5t252.5 108.5q123 0 201.5 -60.5t78.5 -170.5q0 -49 -13.5 -92t-33.5 -76t-55.5 -64.5t-67 -53t-82.5 -46t-86.5 -40t-92.5 -38.5l-15 -6q47 -100 119 -215 q45 -81 143 -231q142 153 231 321l89 -51q-140 -225 -263 -352q50 -68 166 -211h-147q-26 31 -103 133q-187 -158 -387 -158q-173 0 -285 88.5t-112 245.5zM166 324q0 -121 82.5 -187.5t202.5 -66.5q152 0 319 143q-111 162 -156 242q-89 150 -131 239q-72 -33 -123 -64 t-98.5 -75t-71.5 -102t-24 -129zM512 1022q0 -91 45 -203q60 23 96.5 38.5t85.5 40t78 47.5t57 53.5t41 67t13 79.5q0 72 -48.5 111.5t-119.5 39.5q-43 0 -86 -18.5t-79.5 -51.5t-59.5 -86.5t-23 -117.5z" />
<glyph unicode="'" horiz-adv-x="382" d="M242 874q47 393 51 422q3 40 26.5 65t59.5 25q27 0 46 -19t19 -48q0 -1 -10 -41l-133 -404h-59z" />
<glyph unicode="(" horiz-adv-x="464" d="M51 172q0 317 131.5 631.5t382.5 599.5l53 -53q-221 -298 -336.5 -599t-115.5 -628q0 -212 74 -490l-74 -41q-115 269 -115 580z" />
<glyph unicode=")" horiz-adv-x="464" d="M-156 -354q221 297 337 597.5t116 628.5q0 212 -74 490l72 41q117 -267 117 -580q0 -317 -131.5 -631.5t-382.5 -599.5z" />
<glyph unicode="*" horiz-adv-x="686" d="M186 1024l236 84l-186 129l51 61l172 -149l41 237h78l-66 -241l229 104l23 -69l-236 -84l187 -129l-53 -62l-170 150l-41 -238h-80l67 244l-229 -107z" />
<glyph unicode="+" horiz-adv-x="1015" d="M92 647l19 86h403l94 432h92l-94 -432h404l-21 -86h-403l-99 -444h-90l99 444h-404z" />
<glyph unicode="," horiz-adv-x="448" d="M-37 -184q57 29 102 77t58 95h-14q-28 0 -49 21.5t-21 51.5q0 41 28.5 70t67.5 29q38 0 63 -26.5t25 -72.5q0 -85 -63 -170.5t-148 -130.5z" />
<glyph unicode="-" horiz-adv-x="614" d="M49 446l21 99h491l-20 -99h-492z" />
<glyph unicode="." horiz-adv-x="448" d="M39 63q0 40 28.5 68.5t69.5 28.5q34 0 58 -24.5t24 -59.5q0 -40 -29 -68t-69 -28q-35 0 -58.5 24t-23.5 59z" />
<glyph unicode="/" horiz-adv-x="577" d="M-121 -41l805 1448h96l-807 -1448h-94z" />
<glyph unicode="0" horiz-adv-x="1245" d="M133 500q0 120 27 244.5t81.5 239t128.5 204.5t176.5 144t217.5 54q208 0 317 -140t109 -382q0 -120 -26.5 -244.5t-80.5 -240t-127.5 -206t-175.5 -144.5t-217 -54q-208 0 -319 141.5t-111 383.5zM256 492q0 -89 17.5 -162t54.5 -129.5t99.5 -87.5t145.5 -31 q110 0 206 75t158 192t97 255t35 268q0 89 -17.5 161.5t-54.5 128.5t-99 87t-146 31q-89 0 -169 -49t-138.5 -130t-102 -183.5t-65 -212.5t-21.5 -213z" />
<glyph unicode="1" horiz-adv-x="630" d="M174 1049l371 317h106l-301 -1366h-117l265 1206l-269 -233z" />
<glyph unicode="2" horiz-adv-x="1191" d="M4 0l29 123q136 86 225 144.5t201 136.5t184 135.5t147.5 128t118 128.5t70 122t27.5 124q0 111 -86.5 174.5t-227.5 63.5q-217 0 -354 -137l-64 82q73 73 186 117t236 44q86 0 163 -20.5t139 -61t98.5 -107t36.5 -150.5q0 -54 -16.5 -109.5t-45 -107t-74 -107 t-93.5 -104.5t-115.5 -105t-129 -103t-143.5 -103t-150 -100.5t-157 -101.5h719l-23 -106h-901z" />
<glyph unicode="3" horiz-adv-x="1114" d="M2 260l94 62q45 -109 154 -174.5t242 -65.5q164 0 262 92t98 236q0 108 -89.5 173.5t-236.5 65.5q-93 0 -116 -2l26 111q18 -2 182 -2q95 0 173.5 29.5t130 94.5t51.5 156q0 104 -91.5 174t-240.5 70q-194 0 -350 -143l-58 82q77 77 188 122t226 45q197 0 321 -89.5 t124 -249.5q0 -78 -33 -144.5t-87.5 -110t-119 -69.5t-131.5 -31q106 -25 177 -101t71 -188q0 -178 -133.5 -303t-343.5 -125q-167 0 -305 80t-185 205z" />
<glyph unicode="4" horiz-adv-x="1107" d="M43 373l27 112l790 881h166l-197 -887h201l-22 -106h-201l-82 -373h-117l82 373h-647zM186 479h527l170 770z" />
<glyph unicode="5" horiz-adv-x="1191" d="M86 252l94 67q104 -237 385 -237q155 0 266 108t111 265q0 137 -92 213.5t-238 76.5q-159 0 -299 -104l-77 47l149 678h789l-23 -106h-672l-112 -506q51 40 128 67t164 27q109 0 199.5 -42t148.5 -131t58 -210q0 -131 -64 -242.5t-182 -179.5t-264 -68q-340 0 -469 277z " />
<glyph unicode="6" horiz-adv-x="1196" d="M125 467q0 79 11.5 164t37 175t62.5 173.5t90.5 157.5t118 129.5t149 87.5t178.5 32q138 0 239 -55.5t154 -156.5l-88 -76q-39 87 -119 134.5t-192 47.5q-85 0 -159 -35.5t-127 -92.5t-96.5 -136t-70.5 -157.5t-47 -166.5q-1 -3 -10 -39q65 73 178.5 132t231.5 59 q182 0 294.5 -95.5t112.5 -259.5q0 -135 -65.5 -253t-183.5 -189.5t-261 -71.5q-211 0 -324.5 128t-113.5 364zM238 436q0 -160 85.5 -257t243.5 -97q162 0 272.5 117.5t110.5 273.5q0 124 -87.5 196t-233.5 72q-212 0 -387 -196q-4 -36 -4 -109z" />
<glyph unicode="7" horiz-adv-x="1028" d="M137 0l848 1260h-749l22 106h895l-18 -82l-863 -1284h-135z" />
<glyph unicode="8" d="M76 317q0 156 117.5 261.5t310.5 140.5q-104 39 -177 114t-73 179q0 74 27.5 137t73 106t105.5 73t124.5 44t130.5 14q117 0 216 -38t161.5 -114t62.5 -177q0 -149 -110.5 -244t-290.5 -121q47 -20 90 -47t85.5 -67t67.5 -95t25 -118q0 -110 -64.5 -200t-173.5 -140 t-239 -50q-207 0 -338 90t-131 252zM199 336q0 -120 100 -187t248 -67q89 0 169 33.5t133.5 101.5t53.5 156q0 53 -27.5 102t-71.5 83.5t-91.5 58.5t-94.5 36q-182 -12 -300.5 -99t-118.5 -218zM373 1006q0 -61 44.5 -116t103.5 -88t120 -48q175 14 282 88.5t107 201.5 q0 99 -93 166.5t-226 67.5q-139 0 -238.5 -73.5t-99.5 -198.5z" />
<glyph unicode="9" horiz-adv-x="1196" d="M111 190l86 76q39 -87 119.5 -134.5t193.5 -47.5q85 0 158.5 35.5t126 92.5t96.5 136t71.5 157.5t47.5 166.5q8 36 8 37q-65 -72 -178.5 -130.5t-231.5 -58.5q-183 0 -295 95t-112 259q0 135 66 253t184 190t260 72q211 0 324.5 -128t113.5 -364q0 -79 -11.5 -164.5 t-37 -175.5t-62 -173.5t-90 -158t-118 -129.5t-149 -87t-179.5 -32q-138 0 -238.5 56t-152.5 157zM324 891q0 -124 87.5 -196t233.5 -72q216 0 387 196q4 36 4 109q0 160 -85.5 257t-243.5 97q-162 0 -272.5 -117.5t-110.5 -273.5z" />
<glyph unicode=":" horiz-adv-x="448" d="M39 63q0 40 28.5 68.5t69.5 28.5q34 0 58 -24.5t24 -59.5q0 -40 -29 -68t-69 -28q-35 0 -58.5 24t-23.5 59zM225 907q0 40 29.5 68.5t69.5 28.5q35 0 58.5 -24t23.5 -58q0 -41 -29.5 -69t-69.5 -28q-35 0 -58.5 23.5t-23.5 58.5z" />
<glyph unicode=";" horiz-adv-x="448" d="M-37 -184q57 29 102 77t58 95h-14q-28 0 -49 21.5t-21 51.5q0 41 28.5 70t67.5 29q38 0 63 -26.5t25 -72.5q0 -85 -63 -170.5t-148 -130.5zM225 907q0 40 29.5 68.5t69.5 28.5q35 0 58.5 -24t23.5 -58q0 -41 -29.5 -69t-69.5 -28q-35 0 -58.5 23.5t-23.5 58.5z" />
<glyph unicode="&#x3c;" horiz-adv-x="1015" d="M90 647l19 76l999 465l-25 -107l-878 -403l700 -397l-20 -97z" />
<glyph unicode="=" horiz-adv-x="1015" d="M45 442l21 84h897l-19 -84h-899zM135 842l19 86h897l-19 -86h-897z" />
<glyph unicode="&#x3e;" horiz-adv-x="1015" d="M-12 184l24 107l881 397l-703 404l21 96l795 -465l-17 -76z" />
<glyph unicode="?" horiz-adv-x="950" d="M193 1212q177 174 409 174q180 0 292 -83t112 -216q0 -74 -30 -134.5t-78 -100.5t-106 -73.5t-116.5 -62.5t-106.5 -58t-78 -68.5t-30 -87.5q0 -51 39 -90l-92 -52q-54 69 -54 148q0 60 29 108t75 81.5t101.5 63t111.5 59t102 62.5t75 82t29 109q0 94 -75.5 150.5 t-207.5 56.5q-200 0 -344 -147zM270 63q0 40 29.5 68.5t69.5 28.5q35 0 58.5 -24.5t23.5 -59.5q0 -40 -29 -68t-70 -28q-34 0 -58 24t-24 59z" />
<glyph unicode="@" horiz-adv-x="1603" d="M113 500q0 163 67.5 313t179 257.5t260.5 172t306 64.5q188 0 336.5 -88.5t228.5 -238.5t80 -333q0 -220 -98.5 -346.5t-233.5 -126.5q-81 0 -129.5 51.5t-50.5 122.5l-2 12q-58 -80 -148 -133t-188 -53q-141 0 -227 89.5t-86 238.5q0 107 42 204.5t110.5 166t157 109 t179.5 40.5q97 0 165.5 -47.5t100.5 -120.5l27 133h100l-121 -577q-4 -24 -4 -39q0 -52 30 -82.5t73 -30.5q26 0 55.5 11t62.5 40t59 71t43 112t17 157q0 168 -73 302.5t-207 212t-305 77.5q-146 0 -283.5 -62t-237.5 -163t-160.5 -236.5t-60.5 -277.5q0 -163 76 -296 t212 -209.5t304 -76.5q203 0 383 117l35 -51q-200 -129 -426 -129q-183 0 -332 85t-233 232t-84 326zM514 508q0 -110 60.5 -180t166.5 -70q105 0 191 60.5t145 146.5l66 303q-23 66 -82.5 118t-151.5 52q-106 0 -198 -62t-144.5 -161t-52.5 -207z" />
<glyph unicode="A" horiz-adv-x="1325" d="M-80 0l860 1366h146l258 -1366h-129l-64 336h-721l-209 -336h-141zM332 442h647l-148 799z" />
<glyph unicode="B" horiz-adv-x="1257" d="M59 0l301 1366h527q142 0 240 -85.5t98 -223.5q0 -144 -93.5 -249t-224.5 -120q86 -22 142.5 -103t56.5 -179q0 -79 -28.5 -151t-84 -129.5t-146 -91.5t-204.5 -34h-584zM199 106h450q156 0 246 91t90 215q0 103 -67 169t-183 66h-416zM344 754h447q81 0 142.5 25.5 t95.5 68.5t50.5 92.5t16.5 103.5q0 92 -68.5 154t-167.5 62h-405z" />
<glyph unicode="C" horiz-adv-x="1376" d="M137 567q0 181 64.5 337.5t171 261t242.5 164t280 59.5q180 0 319.5 -76t217.5 -217l-113 -52q-68 122 -180.5 180t-251.5 58q-117 0 -228.5 -50.5t-199.5 -140.5t-141.5 -226t-53.5 -294q0 -221 134 -355t360 -134q207 0 385 156l84 -70q-101 -97 -224 -145t-251 -48 q-178 0 -317.5 73t-218.5 208.5t-79 310.5z" />
<glyph unicode="D" horiz-adv-x="1417" d="M59 0l301 1366h426q113 0 215 -44t177 -120t119 -185t44 -233q0 -115 -32.5 -226.5t-102 -212.5t-167 -177.5t-238.5 -122t-307 -45.5h-435zM199 106h305h10q158 0 292 54.5t223.5 147t139.5 214.5t50 258q0 207 -130 343.5t-325 136.5h-309z" />
<glyph unicode="E" horiz-adv-x="1155" d="M59 0l301 1366h867l-23 -106h-749l-111 -506h733l-24 -107h-734l-120 -541h747l-20 -106h-867z" />
<glyph unicode="F" horiz-adv-x="1110" d="M59 0l301 1366h867l-23 -106h-749l-111 -506h733l-24 -107h-734l-143 -647h-117z" />
<glyph unicode="G" horiz-adv-x="1456" d="M137 567q0 175 61.5 329t165.5 261.5t244 169.5t293 62q178 0 313.5 -75t212.5 -206l-104 -53q-61 111 -177 169t-259 58q-120 0 -233 -53.5t-199.5 -145.5t-138.5 -226t-52 -286q0 -224 134.5 -356.5t359.5 -132.5q222 0 397 164l72 327h-516l22 105h635l-108 -488 q-221 -215 -508 -215q-277 0 -446 165.5t-169 426.5z" />
<glyph unicode="H" horiz-adv-x="1439" d="M59 0l301 1366h117l-133 -610h864l135 610h119l-301 -1366h-119l144 649h-867l-143 -649h-117z" />
<glyph unicode="I" horiz-adv-x="456" d="M59 0l301 1366h117l-301 -1366h-117z" />
<glyph unicode="J" horiz-adv-x="962" d="M-39 156l78 82q84 -156 274 -156q136 0 221 84t117 229l213 971h119l-213 -971q-46 -210 -162 -315t-289 -105q-119 0 -213.5 46.5t-144.5 134.5z" />
<glyph unicode="K" horiz-adv-x="1200" d="M59 0l301 1366h117l-162 -733l811 733h160l-725 -651l479 -715h-139l-426 651l-192 -174l-107 -477h-117z" />
<glyph unicode="L" horiz-adv-x="1058" d="M59 0l301 1366h117l-278 -1260h661l-22 -106h-779z" />
<glyph unicode="M" horiz-adv-x="1617" d="M59 0l301 1366h168l213 -1139l717 1139h180l-301 -1366h-118l268 1219l-766 -1219h-45l-230 1219l-270 -1219h-117z" />
<glyph unicode="N" horiz-adv-x="1431" d="M59 0l301 1366h119l594 -1173l262 1173h117l-301 -1366h-115l-596 1192l-264 -1192h-117z" />
<glyph unicode="O" horiz-adv-x="1564" d="M137 567q0 170 60 323t162 262t242 173t294 64q127 0 238 -39.5t194.5 -113t131.5 -187t48 -252.5q0 -170 -60 -323t-161 -262t-240.5 -173t-293.5 -64q-128 0 -239.5 39.5t-195.5 113t-132 187t-48 252.5zM264 571q0 -116 39 -210t107 -154.5t157 -92.5t191 -32 q123 0 236.5 53.5t198.5 146t136 226.5t51 285q0 116 -39 210t-107 154.5t-157.5 92.5t-191.5 32q-123 0 -236.5 -53.5t-198.5 -146t-135.5 -226t-50.5 -285.5z" />
<glyph unicode="P" d="M59 0l301 1366h480q157 0 257.5 -100.5t100.5 -241.5q0 -65 -17.5 -128.5t-57 -123.5t-96.5 -105t-143.5 -72.5t-191.5 -27.5h-389l-127 -567h-117zM326 674h381q174 0 270 99t96 243q0 99 -72.5 171.5t-179.5 72.5h-366z" />
<glyph unicode="Q" horiz-adv-x="1564" d="M137 567q0 170 60 323t162 262t242 173t294 64q127 0 238 -39.5t194.5 -113t131.5 -187t48 -252.5q0 -206 -84.5 -381.5t-230.5 -288.5l92 -123l-94 -59l-90 121q-166 -91 -348 -91q-128 0 -239.5 39.5t-195.5 113t-132 187t-48 252.5zM264 571q0 -116 39 -210 t107 -154.5t157 -92.5t191 -32q142 0 274 74l-176 239l94 60l174 -238q119 98 187.5 247t68.5 329q0 116 -39 210t-107 154.5t-157.5 92.5t-191.5 32q-123 0 -236.5 -53.5t-198.5 -146t-135.5 -226t-50.5 -285.5z" />
<glyph unicode="R" horiz-adv-x="1216" d="M59 0l301 1366h469q70 0 136 -23.5t118.5 -66t84.5 -109t32 -145.5q0 -192 -128.5 -319t-338.5 -134l268 -569h-133l-258 565h-309l-125 -565h-117zM326 672h376h5q172 0 269 99t97 245q0 104 -78 174t-180 70h-360z" />
<glyph unicode="S" horiz-adv-x="1189" d="M49 215l86 84q72 -102 187.5 -159.5t259.5 -57.5q87 0 156 27.5t108.5 71.5t59.5 95t20 103q0 48 -23.5 88t-63 69t-90.5 55t-107.5 49t-113 47.5t-107.5 55t-90.5 66.5t-63 87t-23.5 112q0 157 134 269t327 112q155 0 281 -58t190 -155l-89 -82q-62 92 -167.5 140 t-225.5 48q-133 0 -228 -79.5t-95 -182.5q0 -49 29.5 -90t77.5 -69t109.5 -57.5t125.5 -54t125.5 -59.5t109.5 -73.5t77.5 -96t29.5 -127.5q0 -62 -19.5 -122t-60 -113.5t-97 -94t-136 -64.5t-171.5 -24q-171 0 -314 68t-208 172z" />
<glyph unicode="T" horiz-adv-x="1155" d="M240 1260l22 106h1012l-23 -106h-446l-279 -1260h-118l278 1260h-446z" />
<glyph unicode="U" horiz-adv-x="1404" d="M166 420q0 59 10 104l184 842h119l-184 -840q-12 -48 -12 -92q0 -158 103 -255t284 -97q99 0 175.5 30t129.5 89.5t88 138t59 186.5l185 840h118l-184 -842q-30 -132 -73 -228.5t-109 -171t-163.5 -112t-225.5 -37.5q-234 0 -369 120t-135 325z" />
<glyph unicode="V" horiz-adv-x="1325" d="M221 1366h129l223 -1235l770 1235h142l-860 -1366h-146z" />
<glyph unicode="W" horiz-adv-x="1775" d="M229 1366h129l62 -1202l602 1202h106l70 -1202l594 1202h135l-690 -1366h-131l-70 1174l-585 -1174h-132z" />
<glyph unicode="X" horiz-adv-x="1320" d="M-74 0l703 709l-371 657h137l322 -580l565 580h160l-662 -672l391 -694h-133l-348 618l-604 -618h-160z" />
<glyph unicode="Y" horiz-adv-x="1265" d="M221 1366h131l314 -672l608 672h151l-714 -782l-129 -584h-119l129 584z" />
<glyph unicode="Z" horiz-adv-x="1189" d="M-8 0l22 102l1069 1158h-811l21 106h971l-21 -100l-1071 -1160h827l-22 -106h-985z" />
<glyph unicode="[" horiz-adv-x="466" d="M-121 -389l393 1778h357l-21 -89h-266l-354 -1601h264l-19 -88h-354z" />
<glyph unicode="\" horiz-adv-x="577" d="M201 1407h92l164 -1448h-92z" />
<glyph unicode="]" horiz-adv-x="466" d="M-162 -389l21 88h262l356 1601h-266l20 89h357l-395 -1778h-355z" />
<glyph unicode="^" horiz-adv-x="876" d="M78 682l508 684h86l205 -684h-93l-170 600l-434 -600h-102z" />
<glyph unicode="_" horiz-adv-x="1155" d="M-154 -170l21 88h1165l-20 -88h-1166z" />
<glyph unicode="`" horiz-adv-x="442" d="M207 1434h127l250 -295h-90z" />
<glyph unicode="a" d="M92 381q0 125 38 240t104.5 202t165 139t212.5 52q118 0 211 -52.5t146 -140.5l35 168h108l-219 -989h-109l35 150q-64 -81 -151 -128t-189 -47q-173 0 -280 108.5t-107 297.5zM209 399q0 -151 81.5 -239t217.5 -88q100 0 191 54.5t145 135.5l104 475 q-39 78 -125.5 129.5t-201.5 51.5q-90 0 -168.5 -44.5t-131 -117t-82.5 -166t-30 -191.5z" />
<glyph unicode="b" d="M55 0l301 1366h107l-115 -526q62 81 149.5 127.5t190.5 46.5q172 0 278.5 -109.5t106.5 -298.5q0 -98 -23.5 -192t-69.5 -173t-108 -139t-144 -93.5t-173 -33.5q-119 0 -211 52.5t-145 140.5l-37 -168h-107zM217 252q39 -78 126 -129t202 -51q91 0 169.5 44t130.5 116.5 t81.5 165t29.5 190.5q0 151 -81.5 240.5t-217.5 89.5q-99 0 -189 -54.5t-146 -136.5z" />
<glyph unicode="c" horiz-adv-x="1011" d="M94 414q0 161 72 299t199 219.5t278 81.5q248 0 354 -180l-82 -62q-41 73 -112 109.5t-156 36.5q-131 0 -233.5 -73t-154.5 -187t-52 -246q0 -163 94 -251.5t244 -88.5q81 0 150 34t118 93l61 -74q-143 -150 -339 -150t-318.5 116.5t-122.5 322.5z" />
<glyph unicode="d" d="M92 381q0 125 38 240t104.5 202t165 139t212.5 52q118 0 211 -52.5t146 -140.5l118 545h109l-303 -1366h-109l35 150q-64 -81 -151 -128t-189 -47q-173 0 -280 108.5t-107 297.5zM209 399q0 -151 81.5 -239t217.5 -88q100 0 191 54.5t145 135.5l104 475 q-39 78 -125.5 129.5t-201.5 51.5q-90 0 -168.5 -44.5t-131 -117t-82.5 -166t-30 -191.5z" />
<glyph unicode="e" horiz-adv-x="1161" d="M94 412q0 122 43 233t116 192t175 129t215 48q193 0 306.5 -121t113.5 -307q0 -58 -16 -125h-836q-4 -24 -4 -58q0 -144 94 -239.5t268 -95.5q78 0 157.5 27t141.5 79l41 -78q-70 -54 -160.5 -87.5t-183.5 -33.5q-219 0 -345 120t-126 317zM221 545h737q3 15 3 45 q0 149 -87 240.5t-243 91.5q-147 0 -265 -111t-145 -266z" />
<glyph unicode="f" horiz-adv-x="542" d="M90 0l199 895h-164l20 94h164l19 90q72 307 309 307q63 0 108 -17t86 -58l-61 -68q-48 51 -133 51q-83 0 -130 -53.5t-71 -161.5l-20 -90h202l-22 -94h-201l-196 -895h-109z" />
<glyph unicode="g" horiz-adv-x="1167" d="M8 -233l76 75q100 -151 348 -151q130 0 223 76t131 243l31 148q-63 -80 -153.5 -127t-196.5 -47q-165 0 -270 105t-105 306q0 119 36.5 230.5t101 198t163 138.5t213.5 52q104 0 204 -55t155 -138l39 168h108l-219 -979q-24 -111 -69 -191.5t-106 -128t-131 -69.5 t-153 -22q-148 0 -251.5 37.5t-174.5 130.5zM205 410q0 -154 81.5 -243t219.5 -89q91 0 182 51.5t152 126.5l108 479q-44 83 -137.5 133t-200.5 50q-120 0 -214.5 -76.5t-142.5 -191t-48 -240.5z" />
<glyph unicode="h" horiz-adv-x="1105" d="M55 0l301 1366h107l-115 -526q76 75 168.5 124.5t188.5 49.5q131 0 209.5 -62t78.5 -180q0 -38 -12 -84l-152 -688h-106l147 672q13 58 13 71q0 88 -60 131.5t-161 43.5q-86 0 -174.5 -50.5t-161.5 -124.5l-164 -743h-107z" />
<glyph unicode="i" horiz-adv-x="438" d="M55 0l219 989h107l-219 -989h-107zM295 1217q0 39 28.5 64.5t63.5 25.5q32 0 53 -21t21 -51q0 -39 -28.5 -64.5t-63.5 -25.5q-31 0 -52.5 21.5t-21.5 50.5z" />
<glyph unicode="j" horiz-adv-x="438" d="M-371 -315l58 77q24 -31 64 -51t83 -20q149 0 193 182l247 1116h107l-248 -1116q-31 -139 -99.5 -206.5t-185.5 -67.5q-148 0 -219 86zM295 1217q0 39 28.5 64.5t63.5 25.5q32 0 53 -21t21 -51q0 -39 -28.5 -64.5t-63.5 -25.5q-31 0 -52.5 21.5t-21.5 50.5z" />
<glyph unicode="k" horiz-adv-x="1034" d="M55 0l301 1366h107l-207 -934l700 557h150l-561 -446l340 -543h-131l-297 477l-230 -180l-65 -297h-107z" />
<glyph unicode="l" horiz-adv-x="438" d="M55 0l301 1366h107l-301 -1366h-107z" />
<glyph unicode="m" horiz-adv-x="1615" d="M55 0l219 989h107l-33 -149q35 40 75 74.5t107.5 67t133.5 32.5q113 0 180 -63t67 -128v-4q66 83 155 139t187 56q105 0 177.5 -64t72.5 -178q0 -26 -12 -84l-152 -688h-106l151 688q9 36 9 60q0 79 -52.5 124.5t-128.5 45.5q-74 0 -154.5 -50t-142.5 -123l-163 -745 h-109l154 688q8 62 8 72q-2 69 -50 113.5t-134 44.5q-72 0 -150.5 -49.5t-144.5 -123.5l-164 -745h-107z" />
<glyph unicode="n" horiz-adv-x="1105" d="M55 0l219 989h107l-33 -149q76 75 168.5 124.5t188.5 49.5q131 0 209.5 -62t78.5 -180q0 -38 -12 -84l-152 -688h-106l147 672q13 58 13 71q0 88 -59 131.5t-156 43.5q-90 0 -180 -49.5t-162 -123.5l-164 -745h-107z" />
<glyph unicode="o" d="M92 410q0 156 70 294.5t196.5 224t278.5 85.5q199 0 317.5 -118.5t118.5 -315.5q0 -156 -70 -294.5t-196.5 -224.5t-278.5 -86q-199 0 -317.5 119t-118.5 316zM209 414q0 -157 85 -249.5t236 -92.5q120 0 219 72.5t153 187.5t54 243q0 157 -85 250t-236 93 q-120 0 -219 -72.5t-153 -188t-54 -243.5z" />
<glyph unicode="p" horiz-adv-x="1161" d="M-29 -377l303 1366h107l-33 -149q62 81 149.5 127.5t190.5 46.5q172 0 278.5 -109.5t106.5 -298.5q0 -98 -23.5 -192t-69.5 -173t-108 -139t-144 -93.5t-173 -33.5q-119 0 -211 52.5t-145 140.5l-121 -545h-107zM217 252q39 -78 126 -129t202 -51q91 0 169.5 44 t130.5 116.5t81.5 165t29.5 190.5q0 151 -81.5 240.5t-217.5 89.5q-99 0 -189 -54.5t-146 -136.5z" />
<glyph unicode="q" horiz-adv-x="1161" d="M92 381q0 125 38 240t104.5 202t165 139t212.5 52q118 0 211 -52.5t146 -140.5l35 168h108l-303 -1366h-109l119 527q-64 -81 -151 -128t-189 -47q-173 0 -280 108.5t-107 297.5zM209 399q0 -151 81.5 -239t217.5 -88q100 0 191 54.5t145 135.5l104 475 q-39 78 -125.5 129.5t-201.5 51.5q-90 0 -168.5 -44.5t-131 -117t-82.5 -166t-30 -191.5z" />
<glyph unicode="r" horiz-adv-x="649" d="M55 0l219 989h107l-37 -160q81 95 165 138t210 43l-25 -115q-36 6 -71 6q-85 0 -167 -53t-134 -127l-160 -721h-107z" />
<glyph unicode="s" horiz-adv-x="940" d="M16 150l76 73q41 -66 128.5 -111.5t195.5 -45.5q118 0 190 60.5t72 143.5q0 43 -29 77t-75.5 58.5t-103 46.5t-113 46.5t-103 53t-75.5 72t-29 97.5q0 125 97 209t263 84q122 0 219 -46.5t141 -115.5l-69 -70q-33 60 -117.5 101t-181.5 41q-110 0 -177 -51t-67 -128 q0 -41 29 -73.5t75.5 -55t103 -44t113 -46.5t103 -54.5t75.5 -75.5t29 -103q0 -131 -100 -224.5t-272 -93.5q-273 0 -398 175z" />
<glyph unicode="t" horiz-adv-x="563" d="M111 895l20 94h164l59 271h109l-60 -271h201l-22 -94h-201l-152 -686q-4 -20 -4 -43q0 -45 26 -69.5t75 -24.5q53 0 104 37l21 -86q-61 -48 -142 -48q-196 0 -196 166q0 24 6 54l155 700h-163z" />
<glyph unicode="u" horiz-adv-x="1105" d="M111 217q0 38 12 84l151 688h107l-148 -670q-12 -60 -12 -73q0 -88 59.5 -131t159.5 -43q87 0 176 50t160 124l166 743h107l-220 -989h-106l33 150q-179 -175 -357 -175q-131 0 -209.5 62t-78.5 180z" />
<glyph unicode="v" horiz-adv-x="985" d="M123 989h115l165 -864l551 864h125l-637 -989h-120z" />
<glyph unicode="w" horiz-adv-x="1472" d="M143 989h109l76 -839l467 839h90l92 -839l450 839h119l-540 -989h-103l-90 846l-465 -846h-102z" />
<glyph unicode="x" horiz-adv-x="980" d="M-76 0l502 508l-260 481h121l215 -407l395 407h135l-477 -481l281 -508h-121l-232 436l-424 -436h-135z" />
<glyph unicode="y" horiz-adv-x="985" d="M-94 -381l41 102q36 -18 96 -18q42 0 77.5 24.5t78.5 88.5l116 178l-192 995h115l165 -864l551 864h125l-780 -1206q-59 -94 -125.5 -139t-150.5 -45q-65 0 -117 20z" />
<glyph unicode="z" horiz-adv-x="960" d="M4 0l16 88l760 807h-577l20 94h723l-18 -86l-764 -809h590l-19 -94h-731z" />
<glyph unicode="{" horiz-adv-x="509" d="M-31 -190q0 32 6 53l103 450q4 24 4 35q0 47 -22 79t-58 32l18 82q57 0 92 40.5t48 104.5l100 449q29 124 103.5 189t181.5 65h127l-21 -89h-127q-67 0 -112 -43t-62 -122l-104 -465q-30 -141 -131 -178q59 -32 59 -111q0 -37 -8 -70l-98 -446q-5 -30 -5 -45 q0 -52 34 -86.5t85 -34.5h115l-21 -88h-100q-82 0 -144.5 55.5t-62.5 143.5z" />
<glyph unicode="|" horiz-adv-x="425" d="M211 -41v1448h88v-1448h-88z" />
<glyph unicode="}" horiz-adv-x="509" d="M-164 -389l21 88h125q68 0 113 43t63 121l104 467q29 140 131 180q-59 27 -59 108q0 37 8 70l98 447q4 24 4 43q0 54 -33.5 88t-84.5 34h-115l20 89h101q82 0 143.5 -55t61.5 -144q0 -34 -7 -55l-100 -449q-4 -24 -4 -37q0 -46 22 -77t58 -31l-21 -82q-56 0 -90 -41 t-47 -105l-100 -448q-29 -125 -103 -189.5t-182 -64.5h-127z" />
<glyph unicode="~" horiz-adv-x="1021" d="M141 887q23 99 54 180.5t74 150t101 106.5t126 38q56 0 93.5 -22.5t55 -58t28 -78.5t17.5 -86t17.5 -78.5t34.5 -58t63 -22.5q81 0 149.5 107.5t114.5 300.5l86 -10q-23 -99 -53.5 -180.5t-73 -151t-101 -108.5t-128.5 -39q-56 0 -93 22t-54.5 57.5t-28 78t-17.5 85.5 t-17.5 78.5t-34.5 57.5t-62 22q-81 0 -150.5 -107t-114.5 -297z" />
<glyph unicode="&#xa1;" horiz-adv-x="448" d="M-41 -377l252 1010h84l-197 -1010h-139zM225 911q0 41 29.5 70t69.5 29q35 0 58.5 -24.5t23.5 -59.5q0 -40 -29.5 -68.5t-69.5 -28.5q-35 0 -58.5 24t-23.5 58z" />
<glyph unicode="&#xa2;" horiz-adv-x="1011" d="M94 414q0 160 71.5 297.5t197.5 219.5t276 83l33 143h90l-35 -149q184 -26 270 -174l-82 -62q-68 118 -208 141l-187 -841h25q81 0 150 34t118 93l61 -74q-143 -150 -339 -150q-25 0 -35 2l-41 -182h-90l43 195q-146 31 -232 142t-86 282zM207 412q0 -131 61 -215 t166 -113l184 831q-124 -8 -219 -81.5t-143.5 -184t-48.5 -237.5z" />
<glyph unicode="&#xa3;" horiz-adv-x="1034" d="M2 84q158 62 265.5 176.5t107.5 231.5q0 28 -6 55h-322l19 86h270q-11 21 -53.5 85.5t-62 115t-19.5 112.5q0 83 37.5 163.5t101 141t153.5 98t189 37.5q136 0 250.5 -65t144.5 -166l-108 -49q-20 77 -99.5 127.5t-183.5 50.5q-147 0 -252.5 -94.5t-105.5 -247.5 q0 -61 20.5 -112.5t59 -110t51.5 -86.5h301l-19 -86h-258q4 -28 4 -41q0 -102 -73 -197.5t-166 -154.5q56 16 98 16q70 0 176 -45t166 -45q109 0 197 84l33 -96q-116 -97 -234 -97q-62 0 -118.5 15t-93 33.5t-92 33.5t-116.5 15q-93 0 -237 -82z" />
<glyph unicode="&#xa5;" horiz-adv-x="1265" d="M-10 258l18 84h537l53 242h-535l17 86h477l-330 696h131l314 -672l608 672h152l-637 -696h465l-19 -86h-524l-53 -242h522l-19 -84h-522l-57 -258h-119l57 258h-536z" />
<glyph unicode="&#xa7;" horiz-adv-x="944" d="M-33 -2l78 68q47 -69 138 -108.5t200 -39.5q114 0 187 61.5t73 153.5q0 45 -29 79.5t-75 58t-101.5 45t-111 45.5t-101.5 53.5t-75 76t-29 105.5q0 101 82 178t231 96q-203 77 -203 230q0 113 96 199.5t257 86.5q129 0 228 -40.5t159 -112.5l-74 -62q-49 66 -132.5 99 t-174.5 33q-107 0 -179.5 -55t-72.5 -132q0 -45 29 -80t75.5 -58t103 -43.5t113 -44t103 -53.5t75.5 -78t29 -110q0 -97 -66 -175.5t-196 -113.5q84 -44 117 -95t33 -120q0 -59 -25 -114.5t-70.5 -99.5t-117 -70.5t-156.5 -26.5q-279 0 -418 164zM229 612q0 -33 14 -59.5 t34.5 -46t61.5 -39.5t75.5 -33.5t95.5 -34.5q127 36 186.5 98t59.5 132q0 38 -16 69t-48.5 54t-66.5 39.5t-84 33.5q-155 -19 -233.5 -77.5t-78.5 -135.5z" />
<glyph unicode="&#xa8;" horiz-adv-x="536" d="M143 1223q0 34 26 59t60 25q29 0 48.5 -19.5t19.5 -48.5q0 -34 -25.5 -59t-60.5 -25q-28 0 -48 19.5t-20 48.5zM561 1223q0 34 26 59t60 25q29 0 48.5 -19.5t19.5 -48.5q0 -34 -25.5 -59t-60.5 -25q-28 0 -48 19.5t-20 48.5z" />
<glyph unicode="&#xa9;" horiz-adv-x="1593" d="M131 684q0 192 94.5 355t257 257.5t353.5 94.5q192 0 355 -94.5t258 -257.5t95 -355q0 -143 -56 -274t-151 -226t-226 -151t-275 -56q-191 0 -353.5 95t-257 258t-94.5 354zM188 684q0 -175 87 -324.5t236.5 -237t324.5 -87.5q176 0 326 87.5t237.5 237t87.5 324.5 q0 176 -87.5 325.5t-237.5 236.5t-326 87q-131 0 -251 -51.5t-207 -138.5t-138.5 -207t-51.5 -252zM403 629q0 103 41.5 196t109 158t155 103t178.5 38q220 0 317 -163l-55 -41q-36 70 -104.5 106.5t-157.5 36.5q-101 0 -196 -55t-157.5 -156.5t-62.5 -222.5q0 -134 91 -228 t235 -94q64 0 128.5 27t108.5 69l35 -51q-129 -106 -272 -106q-181 0 -287.5 109.5t-106.5 273.5z" />
<glyph unicode="&#xaa;" horiz-adv-x="837" d="M186 928q0 104 44.5 195.5t125.5 147.5t179 56q80 0 141.5 -31t97.5 -86l23 101h88l-144 -643h-88l23 102q-96 -119 -232 -119q-108 0 -183 72t-75 205zM279 934q0 -100 52.5 -155.5t139.5 -55.5q119 0 221 117l70 311q-26 47 -85 75.5t-130 28.5q-113 0 -190.5 -95 t-77.5 -226z" />
<glyph unicode="&#xab;" horiz-adv-x="823" d="M59 498l410 362h125l-418 -373l238 -358h-109zM315 498l410 362h125l-418 -373l238 -358h-109z" />
<glyph unicode="&#xac;" horiz-adv-x="1021" d="M135 842l19 86h897l-107 -486h-90l90 400h-809z" />
<glyph unicode="&#xad;" horiz-adv-x="614" d="M49 446l21 99h491l-20 -99h-492z" />
<glyph unicode="&#xae;" horiz-adv-x="1011" d="M172 952q0 181 127 307.5t307 126.5q119 0 219 -57.5t157.5 -157.5t57.5 -219q0 -180 -127.5 -307t-308.5 -127q-180 0 -306 127t-126 307zM227 952q0 -156 110.5 -267.5t266.5 -111.5q157 0 269 112t112 267q0 158 -112 268.5t-269 110.5t-267 -110.5t-110 -268.5z M387 702l109 498h186q58 0 99.5 -35t41.5 -96q0 -71 -51.5 -119.5t-112.5 -48.5l91 -199h-74l-86 197h-98l-43 -197h-62zM504 958h141q46 0 79.5 30t33.5 73q0 38 -24.5 60t-61.5 22h-127z" />
<glyph unicode="&#xaf;" horiz-adv-x="743" d="M152 1182l16 75h741l-16 -75h-741z" />
<glyph unicode="&#xb0;" horiz-adv-x="577" d="M193 1147q0 98 69.5 168.5t167.5 70.5t169 -70.5t71 -168.5t-70.5 -167t-169.5 -69q-98 0 -167.5 69t-69.5 167zM274 1147q0 -65 45 -110.5t109 -45.5q65 0 113.5 46t48.5 110q0 66 -47.5 113t-112.5 47q-64 0 -110 -47t-46 -113z" />
<glyph unicode="&#xb1;" horiz-adv-x="1015" d="M-51 0l16 84h899l-18 -84h-897zM94 662l19 83h403l96 435h90l-94 -435h404l-21 -83h-401l-101 -447h-90l99 447h-404z" />
<glyph unicode="&#xb4;" horiz-adv-x="442" d="M137 1139l381 295h131l-418 -295h-94z" />
<glyph unicode="&#xb5;" horiz-adv-x="1132" d="M-33 -377l309 1366h109l-152 -670q-29 -126 26 -188.5t159 -62.5q90 0 190 49t166 119l166 753h109l-175 -786q-14 -61 3 -96t67 -35q27 0 43 4l-12 -94q-28 -7 -66 -7q-169 0 -149 177q-80 -77 -180 -127t-193 -50q-153 0 -207 115l-104 -467h-109z" />
<glyph unicode="&#xb6;" horiz-adv-x="919" d="M162 981q0 97 50.5 185t143 144t203.5 56h385l-348 -1571h-78l332 1495h-191l-331 -1495h-78l192 867q-116 0 -198 91t-82 228z" />
<glyph unicode="&#xb7;" horiz-adv-x="448" d="M133 494q0 41 29 68.5t71 27.5q34 0 58 -23.5t24 -58.5q0 -40 -29 -68t-69 -28q-35 0 -59.5 24t-24.5 58z" />
<glyph unicode="&#xb8;" horiz-adv-x="405" d="M-182 -311l47 61q66 -69 170 -69q66 0 100.5 29.5t34.5 74.5q0 31 -22 49.5t-60 18.5q-48 0 -76 -35l-49 32l100 173h78l-84 -140q32 25 70 25q53 0 86 -31t33 -86q0 -79 -59.5 -128.5t-155.5 -49.5q-133 0 -213 76z" />
<glyph unicode="&#xba;" horiz-adv-x="829" d="M188 940q0 158 106.5 272.5t260.5 114.5q134 0 215.5 -79.5t81.5 -209.5q0 -158 -106.5 -272.5t-260.5 -114.5q-134 0 -215.5 79.5t-81.5 209.5zM281 940q0 -94 56 -153.5t148 -59.5q121 0 199 92.5t78 218.5q0 93 -58 152t-151 59q-121 0 -196.5 -91.5t-75.5 -217.5z " />
<glyph unicode="&#xbb;" horiz-adv-x="823" d="M-23 129l418 373l-237 358h108l246 -368l-410 -363h-125zM233 129l418 373l-237 358h108l246 -368l-410 -363h-125z" />
<glyph unicode="&#xbf;" horiz-adv-x="804" d="M-59 -100q0 75 30 135.5t78.5 101t106.5 74t116 62.5t106.5 58t78.5 68t30 86q0 52 -41 93l95 49q53 -64 53 -146q0 -60 -29 -108.5t-75 -81.5t-102 -63t-112 -59.5t-102 -63t-75 -82.5t-29 -109q0 -92 75.5 -148.5t208.5 -56.5q199 0 342 146l58 -78 q-174 -174 -410 -174q-180 0 -291.5 82.5t-111.5 214.5zM496 911q0 41 29 69t69 28q35 0 58.5 -23.5t23.5 -58.5q0 -40 -28.5 -68.5t-69.5 -28.5q-34 0 -58 24t-24 58z" />
<glyph unicode="&#xc0;" horiz-adv-x="1325" d="M-80 0l860 1366h146l258 -1366h-129l-64 336h-721l-209 -336h-141zM332 442h647l-148 799zM612 1776h127l250 -295h-90z" />
<glyph unicode="&#xc1;" horiz-adv-x="1325" d="M-80 0l860 1366h146l258 -1366h-129l-64 336h-721l-209 -336h-141zM332 442h647l-148 799zM762 1481l381 295h131l-418 -295h-94z" />
<glyph unicode="&#xc2;" horiz-adv-x="1325" d="M-80 0l860 1366h146l258 -1366h-129l-64 336h-721l-209 -336h-141zM332 442h647l-148 799zM625 1481l264 295h110l138 -295h-78l-127 231l-223 -231h-84z" />
<glyph unicode="&#xc3;" horiz-adv-x="1325" d="M-80 0l860 1366h146l258 -1366h-129l-64 336h-721l-209 -336h-141zM332 442h647l-148 799zM567 1489q25 123 83.5 198.5t146.5 75.5q43 0 72 -21.5t45 -52t30 -61.5t36.5 -52.5t55.5 -21.5q95 0 142 197h75q-26 -124 -84.5 -199t-146.5 -75q-43 0 -72 21.5t-45 52.5 t-30 62.5t-37 53t-56 21.5q-94 0 -141 -199h-74z" />
<glyph unicode="&#xc4;" horiz-adv-x="1325" d="M-80 0l860 1366h146l258 -1366h-129l-64 336h-721l-209 -336h-141zM332 442h647l-148 799zM612 1565q0 34 26 59t60 25q29 0 48.5 -19.5t19.5 -48.5q0 -34 -25.5 -59t-60.5 -25q-28 0 -48 19.5t-20 48.5zM1030 1565q0 34 26 59t60 25q29 0 48.5 -19.5t19.5 -48.5 q0 -34 -25.5 -59t-60.5 -25q-28 0 -48 19.5t-20 48.5z" />
<glyph unicode="&#xc5;" horiz-adv-x="1325" d="M-80 0l860 1366h146l258 -1366h-129l-64 336h-721l-209 -336h-141zM332 442h647l-148 799zM711 1593q0 86 64.5 150.5t150.5 64.5q78 0 128 -50t50 -128q0 -88 -63.5 -151.5t-151.5 -63.5q-78 0 -128 50t-50 128zM778 1599q0 -53 31 -85.5t82 -32.5q60 0 103.5 41.5 t43.5 101.5q0 53 -31 86t-83 33q-59 0 -102.5 -43t-43.5 -101z" />
<glyph unicode="&#xc6;" horiz-adv-x="1923" d="M-82 0l1163 1366h910l-23 -106h-747l-113 -506h733l-24 -107h-734l-118 -541h747l-22 -106h-867l74 336h-555l-283 -336h-141zM426 442h496l174 789z" />
<glyph unicode="&#xc7;" horiz-adv-x="1376" d="M137 567q0 181 64.5 337.5t171 261t242.5 164t280 59.5q180 0 319.5 -76t217.5 -217l-113 -52q-68 122 -180.5 180t-251.5 58q-117 0 -228.5 -50.5t-199.5 -140.5t-141.5 -226t-53.5 -294q0 -221 134 -355t360 -134q207 0 385 156l84 -70q-101 -97 -224 -145t-251 -48 q-27 0 -39 2l-56 -94q32 25 70 25q53 0 86 -31t33 -86q0 -79 -59.5 -128.5t-155.5 -49.5q-133 0 -213 76l47 61q66 -69 170 -69q66 0 100.5 29.5t34.5 74.5q0 31 -22 49.5t-60 18.5q-48 0 -76 -35l-49 32l78 134q-227 33 -365.5 190t-138.5 393z" />
<glyph unicode="&#xc8;" horiz-adv-x="1155" d="M59 0l301 1366h867l-23 -106h-749l-111 -506h733l-24 -107h-734l-120 -541h747l-20 -106h-867zM555 1776h127l250 -295h-90z" />
<glyph unicode="&#xc9;" horiz-adv-x="1155" d="M59 0l301 1366h867l-23 -106h-749l-111 -506h733l-24 -107h-734l-120 -541h747l-20 -106h-867zM702 1481l381 295h131l-417 -295h-95z" />
<glyph unicode="&#xca;" horiz-adv-x="1155" d="M59 0l301 1366h867l-23 -106h-749l-111 -506h733l-24 -107h-734l-120 -541h747l-20 -106h-867zM561 1481l264 295h111l137 -295h-78l-127 231l-223 -231h-84z" />
<glyph unicode="&#xcb;" horiz-adv-x="1155" d="M59 0l301 1366h867l-23 -106h-749l-111 -506h733l-24 -107h-734l-120 -541h747l-20 -106h-867zM553 1565q0 34 26 59t60 25q29 0 48.5 -19.5t19.5 -48.5q0 -34 -25.5 -59t-60.5 -25q-28 0 -48 19.5t-20 48.5zM971 1565q0 34 26 59t60 25q29 0 48 -19.5t19 -48.5 q0 -34 -25.5 -59t-60.5 -25q-28 0 -47.5 19.5t-19.5 48.5z" />
<glyph unicode="&#xcc;" horiz-adv-x="456" d="M59 0l301 1366h117l-301 -1366h-117zM180 1776h127l250 -295h-90z" />
<glyph unicode="&#xcd;" horiz-adv-x="456" d="M59 0l301 1366h117l-301 -1366h-117zM332 1481l381 295h131l-418 -295h-94z" />
<glyph unicode="&#xce;" horiz-adv-x="456" d="M59 0l301 1366h117l-301 -1366h-117zM190 1481l265 295h110l137 -295h-77l-127 231l-224 -231h-84z" />
<glyph unicode="&#xcf;" horiz-adv-x="456" d="M59 0l301 1366h117l-301 -1366h-117zM180 1565q0 34 26 59t60 25q29 0 48.5 -19.5t19.5 -48.5q0 -34 -25.5 -59t-60.5 -25q-28 0 -48 19.5t-20 48.5zM598 1565q0 34 26 59t60 25q29 0 48.5 -19.5t19.5 -48.5q0 -34 -25.5 -59t-60.5 -25q-28 0 -48 19.5t-20 48.5z" />
<glyph unicode="&#xd0;" horiz-adv-x="1476" d="M51 633l23 102h209l139 631h426q113 0 215 -44t177 -120t119 -185t44 -233q0 -115 -32.5 -226.5t-102 -212.5t-167.5 -177.5t-239 -122t-307 -45.5h-434l139 633h-209zM260 106h315q158 0 292 54.5t223.5 147t139.5 214.5t50 258q0 207 -130 343.5t-325 136.5h-309 l-117 -525h365l-23 -102h-364z" />
<glyph unicode="&#xd1;" horiz-adv-x="1431" d="M59 0l301 1366h119l594 -1173l262 1173h117l-301 -1366h-115l-596 1192l-264 -1192h-117zM618 1489q25 123 83.5 198.5t146.5 75.5q43 0 72 -21.5t45 -52t30 -61.5t36.5 -52.5t55.5 -21.5q95 0 142 197h76q-26 -123 -85 -198.5t-147 -75.5q-43 0 -72 21.5t-44.5 52.5 t-29.5 62.5t-37 53t-56 21.5q-95 0 -142 -199h-74z" />
<glyph unicode="&#xd2;" horiz-adv-x="1564" d="M137 567q0 170 60 323t162 262t242 173t294 64q127 0 238 -39.5t194.5 -113t131.5 -187t48 -252.5q0 -170 -60 -323t-161 -262t-240.5 -173t-293.5 -64q-128 0 -239.5 39.5t-195.5 113t-132 187t-48 252.5zM264 571q0 -116 39 -210t107 -154.5t157 -92.5t191 -32 q123 0 236.5 53.5t198.5 146t136 226.5t51 285q0 116 -39 210t-107 154.5t-157.5 92.5t-191.5 32q-123 0 -236.5 -53.5t-198.5 -146t-135.5 -226t-50.5 -285.5zM735 1776h127l250 -295h-90z" />
<glyph unicode="&#xd3;" horiz-adv-x="1564" d="M137 567q0 170 60 323t162 262t242 173t294 64q127 0 238 -39.5t194.5 -113t131.5 -187t48 -252.5q0 -170 -60 -323t-161 -262t-240.5 -173t-293.5 -64q-128 0 -239.5 39.5t-195.5 113t-132 187t-48 252.5zM264 571q0 -116 39 -210t107 -154.5t157 -92.5t191 -32 q123 0 236.5 53.5t198.5 146t136 226.5t51 285q0 116 -39 210t-107 154.5t-157.5 92.5t-191.5 32q-123 0 -236.5 -53.5t-198.5 -146t-135.5 -226t-50.5 -285.5zM883 1481l381 295h131l-418 -295h-94z" />
<glyph unicode="&#xd4;" horiz-adv-x="1564" d="M137 567q0 170 60 323t162 262t242 173t294 64q127 0 238 -39.5t194.5 -113t131.5 -187t48 -252.5q0 -170 -60 -323t-161 -262t-240.5 -173t-293.5 -64q-128 0 -239.5 39.5t-195.5 113t-132 187t-48 252.5zM264 571q0 -116 39 -210t107 -154.5t157 -92.5t191 -32 q123 0 236.5 53.5t198.5 146t136 226.5t51 285q0 116 -39 210t-107 154.5t-157.5 92.5t-191.5 32q-123 0 -236.5 -53.5t-198.5 -146t-135.5 -226t-50.5 -285.5zM745 1481l265 295h110l137 -295h-77l-127 231l-224 -231h-84z" />
<glyph unicode="&#xd5;" horiz-adv-x="1564" d="M137 567q0 170 60 323t162 262t242 173t294 64q127 0 238 -39.5t194.5 -113t131.5 -187t48 -252.5q0 -170 -60 -323t-161 -262t-240.5 -173t-293.5 -64q-128 0 -239.5 39.5t-195.5 113t-132 187t-48 252.5zM264 571q0 -116 39 -210t107 -154.5t157 -92.5t191 -32 q123 0 236.5 53.5t198.5 146t136 226.5t51 285q0 116 -39 210t-107 154.5t-157.5 92.5t-191.5 32q-123 0 -236.5 -53.5t-198.5 -146t-135.5 -226t-50.5 -285.5zM688 1489q25 123 83.5 198.5t146.5 75.5q43 0 72 -21.5t45 -52t30 -61.5t36.5 -52.5t55.5 -21.5q94 0 141 197 h76q-26 -124 -84.5 -199t-146.5 -75q-43 0 -72 21.5t-45 52.5t-30 62.5t-37 53t-56 21.5q-94 0 -141 -199h-74z" />
<glyph unicode="&#xd6;" horiz-adv-x="1564" d="M137 567q0 170 60 323t162 262t242 173t294 64q127 0 238 -39.5t194.5 -113t131.5 -187t48 -252.5q0 -170 -60 -323t-161 -262t-240.5 -173t-293.5 -64q-128 0 -239.5 39.5t-195.5 113t-132 187t-48 252.5zM264 571q0 -116 39 -210t107 -154.5t157 -92.5t191 -32 q123 0 236.5 53.5t198.5 146t136 226.5t51 285q0 116 -39 210t-107 154.5t-157.5 92.5t-191.5 32q-123 0 -236.5 -53.5t-198.5 -146t-135.5 -226t-50.5 -285.5zM735 1565q0 34 26 59t60 25q29 0 48.5 -19.5t19.5 -48.5q0 -34 -25.5 -59t-60.5 -25q-28 0 -48 19.5t-20 48.5z M1153 1565q0 34 26 59t60 25q29 0 48.5 -19.5t19.5 -48.5q0 -34 -25.5 -59t-60.5 -25q-28 0 -48 19.5t-20 48.5z" />
<glyph unicode="&#xd8;" horiz-adv-x="1564" d="M137 567q0 170 60 323t162 262t242 173t294 64q219 0 379 -111l76 88h106l-119 -139q170 -163 170 -430q0 -170 -60 -323t-161 -262t-240.5 -173t-293.5 -64q-230 0 -387 115l-78 -90h-105l121 141q-166 163 -166 426zM264 571q0 -208 117 -338l815 955q-133 94 -311 94 q-123 0 -236.5 -53.5t-198.5 -146t-135.5 -226t-50.5 -285.5zM440 180q128 -98 318 -98q123 0 236.5 53.5t198.5 146t136 226.5t51 285q0 207 -123 340z" />
<glyph unicode="&#xd9;" horiz-adv-x="1404" d="M166 420q0 59 10 104l184 842h119l-184 -840q-12 -48 -12 -92q0 -158 103 -255t284 -97q99 0 175.5 30t129.5 89.5t88 138t59 186.5l185 840h118l-184 -842q-30 -132 -73 -228.5t-109 -171t-163.5 -112t-225.5 -37.5q-234 0 -369 120t-135 325zM653 1776h127l250 -295 h-90z" />
<glyph unicode="&#xda;" horiz-adv-x="1404" d="M166 420q0 59 10 104l184 842h119l-184 -840q-12 -48 -12 -92q0 -158 103 -255t284 -97q99 0 175.5 30t129.5 89.5t88 138t59 186.5l185 840h118l-184 -842q-30 -132 -73 -228.5t-109 -171t-163.5 -112t-225.5 -37.5q-234 0 -369 120t-135 325zM807 1481l381 295h131 l-418 -295h-94z" />
<glyph unicode="&#xdb;" horiz-adv-x="1404" d="M166 420q0 59 10 104l184 842h119l-184 -840q-12 -48 -12 -92q0 -158 103 -255t284 -97q99 0 175.5 30t129.5 89.5t88 138t59 186.5l185 840h118l-184 -842q-30 -132 -73 -228.5t-109 -171t-163.5 -112t-225.5 -37.5q-234 0 -369 120t-135 325zM664 1481l264 295h110 l138 -295h-78l-127 231l-223 -231h-84z" />
<glyph unicode="&#xdc;" horiz-adv-x="1404" d="M166 420q0 59 10 104l184 842h119l-184 -840q-12 -48 -12 -92q0 -158 103 -255t284 -97q99 0 175.5 30t129.5 89.5t88 138t59 186.5l185 840h118l-184 -842q-30 -132 -73 -228.5t-109 -171t-163.5 -112t-225.5 -37.5q-234 0 -369 120t-135 325zM655 1565q0 34 26 59 t60 25q29 0 48.5 -19.5t19.5 -48.5q0 -34 -25.5 -59t-60.5 -25q-28 0 -48 19.5t-20 48.5zM1073 1565q0 34 26 59t60 25q29 0 48.5 -19.5t19.5 -48.5q0 -34 -25.5 -59t-60.5 -25q-28 0 -48 19.5t-20 48.5z" />
<glyph unicode="&#xdd;" horiz-adv-x="1265" d="M221 1366h131l314 -672l608 672h151l-714 -782l-129 -584h-119l129 584zM733 1481l381 295h131l-418 -295h-94z" />
<glyph unicode="&#xde;" d="M59 0l301 1366h117l-55 -254h371q146 0 247 -99.5t101 -242.5q0 -65 -17.5 -128.5t-57.5 -123.5t-97 -105t-143.5 -72.5t-190.5 -27.5h-389l-70 -313h-117zM270 420h377q91 0 163.5 28.5t116 77.5t66.5 109t23 127q0 102 -74 173t-178 71h-365z" />
<glyph unicode="&#xdf;" horiz-adv-x="1183" d="M55 0l230 1042q34 152 136.5 248t256.5 96q82 0 156 -27t122 -81t48 -123q0 -54 -23 -96t-60 -69t-81.5 -49.5t-89 -43t-81.5 -43t-60 -56t-23 -75.5q0 -40 28.5 -71.5t73.5 -52.5t100 -40.5t110 -42.5t100 -51.5t73.5 -73.5t28.5 -102q0 -59 -23.5 -114t-68 -100.5 t-116.5 -72.5t-161 -27q-138 0 -233 43.5t-174 141.5l75 67q123 -161 334 -161q120 0 189 63t69 145q0 58 -53 98.5t-128.5 67.5t-151 56.5t-128.5 83t-53 129.5q0 56 23 101t59.5 74t81 53.5t89 45t81 41.5t59.5 50t23 65q0 67 -68 109t-147 42q-103 0 -181 -67t-104 -181 l-231 -1042h-107z" />
<glyph unicode="&#xe0;" d="M92 381q0 125 38 240t104.5 202t165 139t212.5 52q118 0 211 -52.5t146 -140.5l35 168h108l-219 -989h-109l35 150q-64 -81 -151 -128t-189 -47q-173 0 -280 108.5t-107 297.5zM209 399q0 -151 81.5 -239t217.5 -88q100 0 191 54.5t145 135.5l104 475 q-39 78 -125.5 129.5t-201.5 51.5q-90 0 -168.5 -44.5t-131 -117t-82.5 -166t-30 -191.5zM446 1434h127l250 -295h-90z" />
<glyph unicode="&#xe1;" d="M92 381q0 125 38 240t104.5 202t165 139t212.5 52q118 0 211 -52.5t146 -140.5l35 168h108l-219 -989h-109l35 150q-64 -81 -151 -128t-189 -47q-173 0 -280 108.5t-107 297.5zM209 399q0 -151 81.5 -239t217.5 -88q100 0 191 54.5t145 135.5l104 475 q-39 78 -125.5 129.5t-201.5 51.5q-90 0 -168.5 -44.5t-131 -117t-82.5 -166t-30 -191.5zM594 1139l381 295h131l-418 -295h-94z" />
<glyph unicode="&#xe2;" d="M92 381q0 125 38 240t104.5 202t165 139t212.5 52q118 0 211 -52.5t146 -140.5l35 168h108l-219 -989h-109l35 150q-64 -81 -151 -128t-189 -47q-173 0 -280 108.5t-107 297.5zM209 399q0 -151 81.5 -239t217.5 -88q100 0 191 54.5t145 135.5l104 475 q-39 78 -125.5 129.5t-201.5 51.5q-90 0 -168.5 -44.5t-131 -117t-82.5 -166t-30 -191.5zM455 1139l264 295h110l138 -295h-78l-127 231l-223 -231h-84z" />
<glyph unicode="&#xe3;" d="M92 381q0 125 38 240t104.5 202t165 139t212.5 52q118 0 211 -52.5t146 -140.5l35 168h108l-219 -989h-109l35 150q-64 -81 -151 -128t-189 -47q-173 0 -280 108.5t-107 297.5zM209 399q0 -151 81.5 -239t217.5 -88q100 0 191 54.5t145 135.5l104 475 q-39 78 -125.5 129.5t-201.5 51.5q-90 0 -168.5 -44.5t-131 -117t-82.5 -166t-30 -191.5zM399 1147q25 123 83.5 198.5t146.5 75.5q43 0 72 -21.5t45 -52t30 -61.5t36.5 -52.5t55.5 -21.5q95 0 142 197h75q-26 -124 -84.5 -199t-146.5 -75q-43 0 -72 21.5t-45 52.5t-30 62.5 t-37 53t-56 21.5q-94 0 -141 -199h-74z" />
<glyph unicode="&#xe4;" d="M92 381q0 125 38 240t104.5 202t165 139t212.5 52q118 0 211 -52.5t146 -140.5l35 168h108l-219 -989h-109l35 150q-64 -81 -151 -128t-189 -47q-173 0 -280 108.5t-107 297.5zM209 399q0 -151 81.5 -239t217.5 -88q100 0 191 54.5t145 135.5l104 475 q-39 78 -125.5 129.5t-201.5 51.5q-90 0 -168.5 -44.5t-131 -117t-82.5 -166t-30 -191.5zM446 1223q0 34 26 59t60 25q29 0 48.5 -19.5t19.5 -48.5q0 -34 -25.5 -59t-60.5 -25q-28 0 -48 19.5t-20 48.5zM864 1223q0 34 26 59t60 25q29 0 48.5 -19.5t19.5 -48.5 q0 -34 -25.5 -59t-60.5 -25q-28 0 -48 19.5t-20 48.5z" />
<glyph unicode="&#xe5;" d="M92 381q0 125 38 240t104.5 202t165 139t212.5 52q118 0 211 -52.5t146 -140.5l35 168h108l-219 -989h-109l35 150q-64 -81 -151 -128t-189 -47q-173 0 -280 108.5t-107 297.5zM209 399q0 -151 81.5 -239t217.5 -88q100 0 191 54.5t145 135.5l104 475 q-39 78 -125.5 129.5t-201.5 51.5q-90 0 -168.5 -44.5t-131 -117t-82.5 -166t-30 -191.5zM551 1290q0 86 64.5 150.5t150.5 64.5q78 0 128 -50t50 -128q0 -88 -63.5 -151.5t-151.5 -63.5q-78 0 -128 50t-50 128zM618 1296q0 -53 31 -85.5t82 -32.5q60 0 104 41.5t44 101.5 q0 53 -31.5 86t-83.5 33q-59 0 -102.5 -43t-43.5 -101z" />
<glyph unicode="&#xe6;" horiz-adv-x="1941" d="M92 381q0 125 38 240t104.5 202t165 139t212.5 52q118 0 211 -52.5t146 -140.5l35 168h108l-41 -188q63 88 164 150.5t219 62.5q187 0 288 -117.5t101 -306.5q0 -71 -14 -129h-828q-4 -24 -4 -58q0 -144 95 -239.5t268 -95.5q160 0 289 108l43 -80q-160 -121 -330 -121 q-166 0 -272.5 82t-135.5 219l-61 -276h-109l35 150q-64 -81 -151 -128t-189 -47q-173 0 -280 108.5t-107 297.5zM209 399q0 -151 81.5 -239t217.5 -88q100 0 191 54.5t145 135.5l104 475q-39 78 -125.5 129.5t-201.5 51.5q-90 0 -168.5 -44.5t-131 -117t-82.5 -166 t-30 -191.5zM1012 545h727q2 10 2 45q0 150 -82.5 241t-237.5 91q-147 0 -264.5 -111t-144.5 -266z" />
<glyph unicode="&#xe7;" horiz-adv-x="1011" d="M94 414q0 161 72 299t199 219.5t278 81.5q248 0 354 -180l-82 -62q-41 73 -112 109.5t-156 36.5q-131 0 -233.5 -73t-154.5 -187t-52 -246q0 -163 94 -251.5t244 -88.5q81 0 150 34t118 93l61 -74q-143 -150 -339 -150h-29l-55 -92q32 25 69 25q53 0 86 -31t33 -86 q0 -79 -59.5 -128.5t-155.5 -49.5q-133 0 -213 76l47 61q66 -69 170 -69q66 0 100.5 29.5t34.5 74.5q0 31 -22 49.5t-60 18.5q-47 0 -75 -35l-50 32l78 134q-156 29 -248 140t-92 290z" />
<glyph unicode="&#xe8;" horiz-adv-x="1161" d="M94 412q0 122 43 233t116 192t175 129t215 48q193 0 306.5 -121t113.5 -307q0 -58 -16 -125h-836q-4 -24 -4 -58q0 -144 94 -239.5t268 -95.5q78 0 157.5 27t141.5 79l41 -78q-70 -54 -160.5 -87.5t-183.5 -33.5q-219 0 -345 120t-126 317zM221 545h737q3 15 3 45 q0 149 -87 240.5t-243 91.5q-147 0 -265 -111t-145 -266zM461 1434h127l250 -295h-90z" />
<glyph unicode="&#xe9;" horiz-adv-x="1161" d="M94 412q0 122 43 233t116 192t175 129t215 48q193 0 306.5 -121t113.5 -307q0 -58 -16 -125h-836q-4 -24 -4 -58q0 -144 94 -239.5t268 -95.5q78 0 157.5 27t141.5 79l41 -78q-70 -54 -160.5 -87.5t-183.5 -33.5q-219 0 -345 120t-126 317zM221 545h737q3 15 3 45 q0 149 -87 240.5t-243 91.5q-147 0 -265 -111t-145 -266zM610 1139l381 295h131l-417 -295h-95z" />
<glyph unicode="&#xea;" horiz-adv-x="1161" d="M94 412q0 122 43 233t116 192t175 129t215 48q193 0 306.5 -121t113.5 -307q0 -58 -16 -125h-836q-4 -24 -4 -58q0 -144 94 -239.5t268 -95.5q78 0 157.5 27t141.5 79l41 -78q-70 -54 -160.5 -87.5t-183.5 -33.5q-219 0 -345 120t-126 317zM221 545h737q3 15 3 45 q0 149 -87 240.5t-243 91.5q-147 0 -265 -111t-145 -266zM469 1139l264 295h111l137 -295h-78l-127 231l-223 -231h-84z" />
<glyph unicode="&#xeb;" horiz-adv-x="1161" d="M94 412q0 122 43 233t116 192t175 129t215 48q193 0 306.5 -121t113.5 -307q0 -58 -16 -125h-836q-4 -24 -4 -58q0 -144 94 -239.5t268 -95.5q78 0 157.5 27t141.5 79l41 -78q-70 -54 -160.5 -87.5t-183.5 -33.5q-219 0 -345 120t-126 317zM221 545h737q3 15 3 45 q0 149 -87 240.5t-243 91.5q-147 0 -265 -111t-145 -266zM459 1223q0 34 26 59t60 25q29 0 48 -19.5t19 -48.5q0 -34 -25.5 -59t-60.5 -25q-28 0 -47.5 19.5t-19.5 48.5zM877 1223q0 34 26 59t60 25q29 0 48 -19.5t19 -48.5q0 -34 -25.5 -59t-60.5 -25q-28 0 -47.5 19.5 t-19.5 48.5z" />
<glyph unicode="&#xec;" horiz-adv-x="438" d="M55 0l219 989h107l-219 -989h-107zM96 1434h127l250 -295h-90z" />
<glyph unicode="&#xed;" horiz-adv-x="438" d="M55 0l219 989h107l-219 -989h-107zM246 1139l381 295h131l-418 -295h-94z" />
<glyph unicode="&#xee;" horiz-adv-x="438" d="M55 0l219 989h107l-219 -989h-107zM104 1139l265 295h110l137 -295h-77l-127 231l-224 -231h-84z" />
<glyph unicode="&#xef;" horiz-adv-x="438" d="M55 0l219 989h107l-219 -989h-107zM94 1223q0 34 26 59t60 25q29 0 48.5 -19.5t19.5 -48.5q0 -34 -25.5 -59t-60.5 -25q-28 0 -48 19.5t-20 48.5zM512 1223q0 34 26 59t60 25q29 0 48.5 -19.5t19.5 -48.5q0 -34 -25.5 -59t-60.5 -25q-28 0 -48 19.5t-20 48.5z" />
<glyph unicode="&#xf0;" d="M94 395q0 123 41 234.5t110.5 192t165.5 128t201 47.5t199.5 -52.5t144.5 -162.5q-79 210 -249 383l-320 -94l-18 66l280 84q-59 54 -143 118l80 82q107 -80 188 -164l240 72l18 -65l-205 -62q117 -134 181.5 -284t64.5 -302q0 -176 -68.5 -322.5t-192.5 -232.5t-277 -86 q-195 0 -318 119t-123 301zM209 410q0 -150 87.5 -244t240.5 -94q112 0 207.5 67.5t151.5 183t56 250.5q0 60 -19.5 116.5t-57.5 105t-103 77.5t-149 29q-169 0 -291.5 -143t-122.5 -348z" />
<glyph unicode="&#xf1;" horiz-adv-x="1105" d="M55 0l219 989h107l-33 -149q76 75 168.5 124.5t188.5 49.5q131 0 209.5 -62t78.5 -180q0 -38 -12 -84l-152 -688h-106l147 672q13 58 13 71q0 88 -59 131.5t-156 43.5q-90 0 -180 -49.5t-162 -123.5l-164 -745h-107zM385 1147q25 123 83 198.5t146 75.5q43 0 72 -21.5 t45 -52t30.5 -61.5t37 -52.5t55.5 -21.5q94 0 141 197h76q-26 -124 -84.5 -199t-146.5 -75q-43 0 -72 21.5t-45 52.5t-30 62.5t-37 53t-56 21.5q-94 0 -141 -199h-74z" />
<glyph unicode="&#xf2;" d="M92 410q0 156 70 294.5t196.5 224t278.5 85.5q199 0 317.5 -118.5t118.5 -315.5q0 -156 -70 -294.5t-196.5 -224.5t-278.5 -86q-199 0 -317.5 119t-118.5 316zM209 414q0 -157 85 -249.5t236 -92.5q120 0 219 72.5t153 187.5t54 243q0 157 -85 250t-236 93 q-120 0 -219 -72.5t-153 -188t-54 -243.5zM465 1434h127l250 -295h-90z" />
<glyph unicode="&#xf3;" d="M92 410q0 156 70 294.5t196.5 224t278.5 85.5q199 0 317.5 -118.5t118.5 -315.5q0 -156 -70 -294.5t-196.5 -224.5t-278.5 -86q-199 0 -317.5 119t-118.5 316zM209 414q0 -157 85 -249.5t236 -92.5q120 0 219 72.5t153 187.5t54 243q0 157 -85 250t-236 93 q-120 0 -219 -72.5t-153 -188t-54 -243.5zM610 1139l381 295h131l-417 -295h-95z" />
<glyph unicode="&#xf4;" d="M92 410q0 156 70 294.5t196.5 224t278.5 85.5q199 0 317.5 -118.5t118.5 -315.5q0 -156 -70 -294.5t-196.5 -224.5t-278.5 -86q-199 0 -317.5 119t-118.5 316zM209 414q0 -157 85 -249.5t236 -92.5q120 0 219 72.5t153 187.5t54 243q0 157 -85 250t-236 93 q-120 0 -219 -72.5t-153 -188t-54 -243.5zM471 1139l264 295h111l137 -295h-78l-127 231l-223 -231h-84z" />
<glyph unicode="&#xf5;" d="M92 410q0 156 70 294.5t196.5 224t278.5 85.5q199 0 317.5 -118.5t118.5 -315.5q0 -156 -70 -294.5t-196.5 -224.5t-278.5 -86q-199 0 -317.5 119t-118.5 316zM209 414q0 -157 85 -249.5t236 -92.5q120 0 219 72.5t153 187.5t54 243q0 157 -85 250t-236 93 q-120 0 -219 -72.5t-153 -188t-54 -243.5zM416 1147q25 123 83 198.5t146 75.5q43 0 72 -21.5t45 -52t30.5 -61.5t37 -52.5t55.5 -21.5q94 0 141 197h76q-26 -123 -85 -198.5t-147 -75.5q-43 0 -72 21.5t-44.5 52.5t-29.5 62.5t-37 53t-56 21.5q-95 0 -142 -199h-73z" />
<glyph unicode="&#xf6;" d="M92 410q0 156 70 294.5t196.5 224t278.5 85.5q199 0 317.5 -118.5t118.5 -315.5q0 -156 -70 -294.5t-196.5 -224.5t-278.5 -86q-199 0 -317.5 119t-118.5 316zM209 414q0 -157 85 -249.5t236 -92.5q120 0 219 72.5t153 187.5t54 243q0 157 -85 250t-236 93 q-120 0 -219 -72.5t-153 -188t-54 -243.5zM463 1223q0 34 26 59t60 25q29 0 48 -19.5t19 -48.5q0 -34 -25.5 -59t-60.5 -25q-28 0 -47.5 19.5t-19.5 48.5zM881 1223q0 34 26 59t60 25q29 0 48 -19.5t19 -48.5q0 -34 -25.5 -59t-60.5 -25q-28 0 -47.5 19.5t-19.5 48.5z" />
<glyph unicode="&#xf7;" horiz-adv-x="1046" d="M92 647l19 86h927l-18 -86h-928zM395 279q0 35 25.5 60.5t62.5 25.5q31 0 52.5 -21.5t21.5 -52.5q0 -36 -26.5 -61t-63.5 -25q-31 0 -51.5 21.5t-20.5 52.5zM571 1081q0 35 26.5 60.5t61.5 25.5q31 0 52.5 -21t21.5 -52q0 -37 -25.5 -61.5t-62.5 -24.5q-31 0 -52.5 21 t-21.5 52z" />
<glyph unicode="&#xf8;" d="M39 0l135 135q-82 111 -82 275q0 156 70 294.5t196.5 224t278.5 85.5q184 0 301 -105l78 80h94l-125 -127q88 -114 88 -282q0 -156 -70 -294.5t-196.5 -224.5t-278.5 -86q-194 0 -311 111l-84 -86h-94zM209 414q0 -120 45 -197l608 617q-87 84 -227 84q-120 0 -219 -72.5 t-153 -188t-54 -243.5zM295 164q86 -92 235 -92q120 0 219 72.5t153 187.5t54 243q0 122 -53 205z" />
<glyph unicode="&#xf9;" horiz-adv-x="1105" d="M111 217q0 38 12 84l151 688h107l-148 -670q-12 -60 -12 -73q0 -88 59.5 -131t159.5 -43q87 0 176 50t160 124l166 743h107l-220 -989h-106l33 150q-179 -175 -357 -175q-131 0 -209.5 62t-78.5 180zM430 1434h127l250 -295h-90z" />
<glyph unicode="&#xfa;" horiz-adv-x="1105" d="M111 217q0 38 12 84l151 688h107l-148 -670q-12 -60 -12 -73q0 -88 59.5 -131t159.5 -43q87 0 176 50t160 124l166 743h107l-220 -989h-106l33 150q-179 -175 -357 -175q-131 0 -209.5 62t-78.5 180zM578 1139l380 295h132l-418 -295h-94z" />
<glyph unicode="&#xfb;" horiz-adv-x="1105" d="M111 217q0 38 12 84l151 688h107l-148 -670q-12 -60 -12 -73q0 -88 59.5 -131t159.5 -43q87 0 176 50t160 124l166 743h107l-220 -989h-106l33 150q-179 -175 -357 -175q-131 0 -209.5 62t-78.5 180zM438 1139l264 295h111l137 -295h-78l-127 231l-223 -231h-84z" />
<glyph unicode="&#xfc;" horiz-adv-x="1105" d="M111 217q0 38 12 84l151 688h107l-148 -670q-12 -60 -12 -73q0 -88 59.5 -131t159.5 -43q87 0 176 50t160 124l166 743h107l-220 -989h-106l33 150q-179 -175 -357 -175q-131 0 -209.5 62t-78.5 180zM428 1223q0 34 26 59t60 25q29 0 48.5 -19.5t19.5 -48.5 q0 -34 -25.5 -59t-60.5 -25q-28 0 -48 19.5t-20 48.5zM846 1223q0 34 26 59t60 25q29 0 48 -19.5t19 -48.5q0 -34 -25.5 -59t-60.5 -25q-28 0 -47.5 19.5t-19.5 48.5z" />
<glyph unicode="&#xfd;" horiz-adv-x="985" d="M-94 -381l41 102q36 -18 96 -18q42 0 77.5 24.5t78.5 88.5l116 178l-192 995h115l165 -864l551 864h125l-780 -1206q-59 -94 -125.5 -139t-150.5 -45q-65 0 -117 20zM512 1139l381 295h131l-418 -295h-94z" />
<glyph unicode="&#xfe;" horiz-adv-x="1161" d="M-29 -377l385 1743h107l-115 -526q62 81 149.5 127.5t190.5 46.5q172 0 278.5 -109.5t106.5 -298.5q0 -98 -23.5 -192t-69.5 -173t-108 -139t-144 -93.5t-173 -33.5q-119 0 -211 52.5t-145 140.5l-121 -545h-107zM217 252q39 -78 126 -129t202 -51q91 0 169.5 44 t130.5 116.5t81.5 165t29.5 190.5q0 151 -81.5 240.5t-217.5 89.5q-99 0 -189 -54.5t-146 -136.5z" />
<glyph unicode="&#xff;" horiz-adv-x="985" d="M-94 -381l41 102q36 -18 96 -18q42 0 77.5 24.5t78.5 88.5l116 178l-192 995h115l165 -864l551 864h125l-780 -1206q-59 -94 -125.5 -139t-150.5 -45q-65 0 -117 20zM362 1223q0 33 26.5 58.5t60.5 25.5q29 0 48 -19.5t19 -48.5q0 -34 -25.5 -59t-60.5 -25 q-28 0 -48 19.5t-20 48.5zM780 1223q0 34 26 59t60 25q29 0 48.5 -19.5t19.5 -48.5q0 -34 -25.5 -59t-60.5 -25q-28 0 -48 19.5t-20 48.5z" />
<glyph unicode="&#x131;" horiz-adv-x="438" d="M55 0l219 989h107l-219 -989h-107z" />
<glyph unicode="&#x152;" horiz-adv-x="2283" d="M137 567q0 177 62 331t167 260t245.5 167t293.5 61q116 0 211.5 -32t176.5 -113t120 -207l72 332h866l-22 -106h-748l-113 -506h734l-25 -107h-733l-119 -541h748l-23 -106h-866l51 233q-89 -122 -221 -190t-301 -68q-257 0 -416.5 165.5t-159.5 426.5zM264 571 q0 -224 132.5 -356.5t348.5 -132.5q157 0 299.5 84t227.5 231l104 473q-28 195 -155 302.5t-322 107.5q-128 0 -244.5 -54t-202.5 -147t-137 -225.5t-51 -282.5z" />
<glyph unicode="&#x153;" horiz-adv-x="1996" d="M92 410q0 116 41 225.5t111 193t172 134.5t217 51q93 0 169.5 -32t122.5 -81.5t72 -100t31 -95.5q22 40 47.5 76t68 81t90 76.5t113.5 53.5t138 22q185 0 300.5 -116t115.5 -312q0 -55 -17 -125h-827q-4 -20 -4 -58q0 -144 93.5 -239.5t264.5 -95.5q79 0 157.5 28 t137.5 78l43 -78q-70 -56 -159.5 -88.5t-182.5 -32.5q-78 0 -147 20.5t-117.5 53t-85.5 74t-56.5 83t-23.5 79.5q-20 -33 -33 -53.5t-40 -56.5t-51 -60t-61 -53t-75 -46t-88 -29t-105 -12q-193 0 -312.5 117t-119.5 318zM209 414q0 -156 83.5 -249t233.5 -93 q117 0 214.5 69.5t152.5 185t55 248.5q0 88 -26 155.5t-71 107.5t-101 60t-119 20q-116 0 -214 -70t-153 -185.5t-55 -248.5zM1067 545h729q4 24 4 45q0 145 -85.5 238.5t-239.5 93.5q-79 0 -153 -35.5t-126 -91t-86 -121.5t-43 -129z" />
<glyph unicode="&#x178;" horiz-adv-x="1265" d="M221 1366h131l314 -672l608 672h151l-714 -782l-129 -584h-119l129 584zM586 1565q0 34 26 59t60 25q29 0 48 -19.5t19 -48.5q0 -34 -25.5 -59t-60.5 -25q-28 0 -47.5 19.5t-19.5 48.5zM1004 1565q0 34 26 59t60 25q29 0 48 -19.5t19 -48.5q0 -34 -25.5 -59t-60.5 -25 q-28 0 -47.5 19.5t-19.5 48.5z" />
<glyph unicode="&#x192;" horiz-adv-x="864" d="M-45 -330l192 862h-151v101h172l100 452q70 301 305 301q126 0 203 -77l-59 -82q-45 53 -125 53t-132.5 -55t-74.5 -154l-98 -438h309v-101h-330l-190 -862h-121z" />
<glyph unicode="&#x2c6;" horiz-adv-x="512" d="M141 1139l265 295h110l137 -295h-78l-126 231l-224 -231h-84z" />
<glyph unicode="&#x2c7;" horiz-adv-x="512" d="M207 1434h76l127 -232l223 232h86l-262 -295h-111z" />
<glyph unicode="&#x2d8;" horiz-adv-x="718" d="M172 1288l68 51q36 -72 104.5 -112.5t161.5 -40.5t180 40.5t154 112.5l51 -51q-81 -84 -184.5 -132t-212.5 -48q-108 0 -192.5 48t-129.5 132z" />
<glyph unicode="&#x2d9;" horiz-adv-x="174" d="M170 1217q0 35 25.5 61.5t60.5 26.5q30 0 50 -20t20 -50q0 -36 -26 -61t-60 -25q-31 0 -50.5 19.5t-19.5 48.5z" />
<glyph unicode="&#x2da;" horiz-adv-x="389" d="M176 1300q0 86 64.5 151t150.5 65q78 0 128 -50.5t50 -128.5q0 -88 -63.5 -151.5t-151.5 -63.5q-78 0 -128 50t-50 128zM244 1307q0 -53 30.5 -86t81.5 -33q60 0 104 41.5t44 101.5q0 53 -31.5 86t-83.5 33q-59 0 -102 -42.5t-43 -100.5z" />
<glyph unicode="&#x2db;" horiz-adv-x="350" d="M-160 -238q0 175 236 279l51 -41q-215 -93 -215 -225q0 -43 26 -65.5t70 -22.5q73 0 121 88l53 -37q-74 -119 -184 -119q-70 0 -114 37.5t-44 105.5z" />
<glyph unicode="&#x2dc;" horiz-adv-x="628" d="M143 1147q25 123 83.5 198.5t146.5 75.5q43 0 72 -21.5t45 -52t30 -61.5t36.5 -52.5t55.5 -21.5q95 0 142 197h75q-26 -124 -84.5 -199t-146.5 -75q-43 0 -72 21.5t-45 52.5t-30 62.5t-37 53t-56 21.5q-94 0 -141 -199h-74z" />
<glyph unicode="&#x2dd;" horiz-adv-x="595" d="M137 1139l264 295h117l-301 -295h-80zM422 1139l264 295h117l-301 -295h-80z" />
<glyph unicode="&#x3a9;" horiz-adv-x="1564" d="M47 0l23 106h321q-111 81 -178.5 204t-67.5 282q0 123 34.5 241t101.5 218t157 176t208 119t249 43q274 0 441 -160t167 -434q0 -128 -37 -241t-101 -197t-141 -146t-167 -105h264l-21 -106h-466l22 106q219 44 369.5 235.5t150.5 449.5q0 224 -133 356.5t-350 132.5 q-135 0 -253 -57t-200 -153t-129 -226t-47 -273q0 -167 76 -284.5t195 -180.5l-23 -106h-465z" />
<glyph unicode="&#x3c0;" horiz-adv-x="1148" d="M76 0l205 895h-164l20 94h1104l-22 -94h-164l-203 -895h-109l205 895h-561l-203 -895h-108z" />
<glyph unicode="&#x401;" horiz-adv-x="1155" d="M59 0l301 1366h867l-23 -106h-749l-111 -506h733l-24 -107h-734l-120 -541h747l-20 -106h-867zM553 1565q0 34 26 59t60 25q29 0 48.5 -19.5t19.5 -48.5q0 -34 -25.5 -59t-60.5 -25q-28 0 -48 19.5t-20 48.5zM971 1565q0 34 26 59t60 25q29 0 48 -19.5t19 -48.5 q0 -34 -25.5 -59t-60.5 -25q-28 0 -47.5 19.5t-19.5 48.5z" />
<glyph unicode="&#x402;" horiz-adv-x="1583" d="M238 1260l22 106h1012l-21 -106h-448l-90 -410q180 45 352 45q225 0 315.5 -124.5t44.5 -338.5l-4 -12q-25 -112 -77 -199t-122 -140t-150 -79.5t-167 -26.5l23 107q140 0 240.5 90t134.5 248l4 12q38 176 -32 266t-241 90t-346 -43l-162 -745h-118l276 1260h-446z" />
<glyph unicode="&#x403;" horiz-adv-x="1110" d="M59 0l301 1366h867l-23 -106h-749l-279 -1260h-117zM719 1481l381 295h131l-418 -295h-94z" />
<glyph unicode="&#x404;" horiz-adv-x="1376" d="M137 567q0 181 64.5 337.5t171 261t242.5 164t280 59.5q180 0 319.5 -76t217.5 -217l-113 -52q-68 122 -180.5 180t-251.5 58q-134 0 -258 -62.5t-217.5 -184.5t-128.5 -281h794l-24 -107h-787q-2 -25 -2 -76q0 -221 134 -355t360 -134q207 0 385 156l84 -70 q-101 -97 -224 -145t-251 -48q-178 0 -317.5 73t-218.5 208.5t-79 310.5z" />
<glyph unicode="&#x405;" horiz-adv-x="1189" d="M49 215l86 84q72 -102 187.5 -159.5t259.5 -57.5q87 0 156 27.5t108.5 71.5t59.5 95t20 103q0 48 -23.5 88t-63 69t-90.5 55t-107.5 49t-113 47.5t-107.5 55t-90.5 66.5t-63 87t-23.5 112q0 157 134 269t327 112q155 0 281 -58t190 -155l-89 -82q-62 92 -167.5 140 t-225.5 48q-133 0 -228 -79.5t-95 -182.5q0 -49 29.5 -90t77.5 -69t109.5 -57.5t125.5 -54t125.5 -59.5t109.5 -73.5t77.5 -96t29.5 -127.5q0 -62 -19.5 -122t-60 -113.5t-97 -94t-136 -64.5t-171.5 -24q-171 0 -314 68t-208 172z" />
<glyph unicode="&#x406;" horiz-adv-x="456" d="M59 0l301 1366h117l-301 -1366h-117z" />
<glyph unicode="&#x407;" horiz-adv-x="456" d="M59 0l301 1366h117l-301 -1366h-117zM180 1565q0 34 26 59t60 25q29 0 48.5 -19.5t19.5 -48.5q0 -34 -25.5 -59t-60.5 -25q-28 0 -48 19.5t-20 48.5zM598 1565q0 34 26 59t60 25q29 0 48.5 -19.5t19.5 -48.5q0 -34 -25.5 -59t-60.5 -25q-28 0 -48 19.5t-20 48.5z" />
<glyph unicode="&#x408;" horiz-adv-x="962" d="M-39 156l78 82q84 -156 274 -156q136 0 221 84t117 229l213 971h119l-213 -971q-46 -210 -162 -315t-289 -105q-119 0 -213.5 46.5t-144.5 134.5z" />
<glyph unicode="&#x409;" horiz-adv-x="2152" d="M-43 -25l23 107q69 0 123.5 24.5t113 90t117 187t123.5 308.5l235 674h768l-125 -567h379q184 0 275 -109.5t65 -271.5q-12 -81 -50 -154t-99 -133t-152.5 -95.5t-200.5 -35.5h-510l277 1260h-545l-203 -578q-45 -129 -89.5 -231.5t-86 -176.5t-85 -127.5t-84 -86.5 t-87 -52t-88.5 -26t-94 -7zM1182 106h381q143 0 243.5 86t122.5 218q22 124 -43 203t-194 79h-381z" />
<glyph unicode="&#x40a;" horiz-adv-x="2152" d="M59 0l299 1366h117l-133 -610h864l135 610h119l-135 -610h401q174 0 261 -104.5t63 -256.5q-12 -77 -48 -146t-93.5 -125.5t-144 -90t-189.5 -33.5h-533l142 649h-865l-143 -649h-117zM1182 106h405q132 0 225 79t115 202q21 114 -40 188t-181 74h-403z" />
<glyph unicode="&#x40b;" horiz-adv-x="1599" d="M238 1260l22 106h1012l-21 -106h-448l-90 -410q180 45 352 45q225 0 315.5 -122t46.5 -327l-96 -446h-119l97 446q37 166 -34 254t-241 88q-171 0 -346 -43l-162 -745h-118l276 1260h-446z" />
<glyph unicode="&#x40c;" horiz-adv-x="1200" d="M59 0l301 1366h117l-162 -733l811 733h160l-725 -651l479 -715h-139l-426 651l-192 -174l-107 -477h-117zM717 1481l381 295h131l-418 -295h-94z" />
<glyph unicode="&#x40e;" horiz-adv-x="1265" d="M-57 96l82 88q57 -102 165 -102q73 0 125 41.5t144 161.5l73 96l-313 985h127l272 -883l662 883h143l-864 -1135q-66 -89 -118.5 -140.5t-120.5 -83.5t-148 -32q-81 0 -141 32t-88 89zM500 1630l67 51q36 -72 105 -112.5t162 -40.5t179.5 40.5t153.5 112.5l52 -51 q-81 -84 -185 -132t-213 -48q-108 0 -192 48t-129 132z" />
<glyph unicode="&#x40f;" horiz-adv-x="1439" d="M59 0l299 1366h117l-276 -1260h866l276 1260h119l-299 -1366h-493l-56 -260h-118l55 260h-490z" />
<glyph unicode="&#x410;" horiz-adv-x="1325" d="M-80 0l860 1366h146l258 -1366h-129l-64 336h-721l-209 -336h-141zM332 442h647l-148 799z" />
<glyph unicode="&#x411;" d="M59 0l299 1366h852l-22 -106h-733l-103 -461h363q156 0 257 -101t101 -241q0 -65 -17.5 -128.5t-56.5 -123.5t-96 -105t-142.5 -72.5t-189.5 -27.5h-512zM199 106h383q174 0 270 99.5t96 243.5q0 99 -72.5 171t-179.5 72h-368z" />
<glyph unicode="&#x412;" horiz-adv-x="1257" d="M59 0l301 1366h527q142 0 240 -85.5t98 -223.5q0 -144 -93.5 -249t-224.5 -120q86 -22 142.5 -103t56.5 -179q0 -79 -28.5 -151t-84 -129.5t-146 -91.5t-204.5 -34h-584zM199 106h450q156 0 246 91t90 215q0 103 -67 169t-183 66h-416zM344 754h447q81 0 142.5 25.5 t95.5 68.5t50.5 92.5t16.5 103.5q0 92 -68.5 154t-167.5 62h-405z" />
<glyph unicode="&#x413;" horiz-adv-x="1110" d="M59 0l301 1366h867l-23 -106h-749l-279 -1260h-117z" />
<glyph unicode="&#x414;" horiz-adv-x="1468" d="M-94 -252l76 352q58 4 100.5 17.5t91.5 50.5t91.5 100.5t91 169t100.5 254.5l235 674h768l-278 -1260h123l-78 -358h-117l55 252h-1087l-55 -252h-117zM213 106h852l254 1154h-545l-203 -578q-87 -250 -173.5 -385t-184.5 -191z" />
<glyph unicode="&#x415;" horiz-adv-x="1155" d="M59 0l301 1366h867l-23 -106h-749l-111 -506h733l-24 -107h-734l-120 -541h747l-20 -106h-867z" />
<glyph unicode="&#x416;" horiz-adv-x="1826" d="M-61 0l792 715l-438 651h139l459 -694l151 694h119l-147 -668l735 668h162l-725 -651l481 -715h-139l-426 649l-121 -106l-119 -543h-119l117 539l-63 98l-699 -637h-159z" />
<glyph unicode="&#x417;" horiz-adv-x="1173" d="M10 260l94 62q47 -111 159.5 -175.5t258.5 -64.5q175 0 278 92t103 236q0 108 -93.5 173.5t-256.5 65.5h-244l25 107h311q70 0 136 17.5t121 51t88.5 88.5t33.5 123q0 104 -96.5 174t-255.5 70q-218 0 -371 -143l-57 82q77 77 193 122t241 45q207 0 336 -89.5t129 -249.5 q0 -78 -36.5 -145t-94 -110t-125.5 -68.5t-135 -29.5q111 -18 189.5 -97.5t78.5 -193.5q0 -178 -139 -303t-359 -125q-181 0 -323 79.5t-189 205.5z" />
<glyph unicode="&#x418;" horiz-adv-x="1431" d="M59 0l301 1366h119l-260 -1173l1114 1173h119l-301 -1366h-119l264 1192l-1122 -1192h-115z" />
<glyph unicode="&#x419;" horiz-adv-x="1431" d="M59 0l301 1366h119l-260 -1173l1114 1173h119l-301 -1366h-119l264 1192l-1122 -1192h-115zM592 1630l67 51q36 -72 105 -112.5t162 -40.5t180 40.5t154 112.5l51 -51q-81 -84 -185 -132t-213 -48q-108 0 -192 48t-129 132z" />
<glyph unicode="&#x41a;" horiz-adv-x="1200" d="M59 0l301 1366h117l-162 -733l811 733h160l-725 -651l479 -715h-139l-426 651l-192 -174l-107 -477h-117z" />
<glyph unicode="&#x41b;" horiz-adv-x="1439" d="M-45 -25l22 107q70 0 124.5 24.5t113.5 90t118 187t124 308.5l235 674h768l-299 -1366h-119l277 1260h-545l-203 -578q-63 -180 -125 -308.5t-118 -205t-120 -120.5t-121.5 -58.5t-131.5 -14.5z" />
<glyph unicode="&#x41c;" horiz-adv-x="1617" d="M59 0l301 1366h168l213 -1139l717 1139h180l-301 -1366h-118l268 1219l-766 -1219h-45l-230 1219l-270 -1219h-117z" />
<glyph unicode="&#x41d;" horiz-adv-x="1439" d="M59 0l301 1366h117l-133 -610h864l135 610h119l-301 -1366h-119l144 649h-867l-143 -649h-117z" />
<glyph unicode="&#x41e;" horiz-adv-x="1564" d="M137 567q0 170 60 323t162 262t242 173t294 64q127 0 238 -39.5t194.5 -113t131.5 -187t48 -252.5q0 -170 -60 -323t-161 -262t-240.5 -173t-293.5 -64q-128 0 -239.5 39.5t-195.5 113t-132 187t-48 252.5zM264 571q0 -116 39 -210t107 -154.5t157 -92.5t191 -32 q123 0 236.5 53.5t198.5 146t136 226.5t51 285q0 116 -39 210t-107 154.5t-157.5 92.5t-191.5 32q-123 0 -236.5 -53.5t-198.5 -146t-135.5 -226t-50.5 -285.5z" />
<glyph unicode="&#x41f;" horiz-adv-x="1439" d="M59 0l301 1366h1102l-301 -1366h-119l277 1260h-864l-279 -1260h-117z" />
<glyph unicode="&#x420;" d="M59 0l301 1366h480q157 0 257.5 -100.5t100.5 -241.5q0 -65 -17.5 -128.5t-57 -123.5t-96.5 -105t-143.5 -72.5t-191.5 -27.5h-389l-127 -567h-117zM326 674h381q174 0 270 99t96 243q0 99 -72.5 171.5t-179.5 72.5h-366z" />
<glyph unicode="&#x421;" horiz-adv-x="1376" d="M137 567q0 181 64.5 337.5t171 261t242.5 164t280 59.5q180 0 319.5 -76t217.5 -217l-113 -52q-68 122 -180.5 180t-251.5 58q-117 0 -228.5 -50.5t-199.5 -140.5t-141.5 -226t-53.5 -294q0 -221 134 -355t360 -134q207 0 385 156l84 -70q-101 -97 -224 -145t-251 -48 q-178 0 -317.5 73t-218.5 208.5t-79 310.5z" />
<glyph unicode="&#x422;" horiz-adv-x="1155" d="M240 1260l22 106h1012l-23 -106h-446l-279 -1260h-118l278 1260h-446z" />
<glyph unicode="&#x423;" horiz-adv-x="1265" d="M-57 96l82 88q57 -102 165 -102q73 0 125 41.5t144 161.5l73 96l-313 985h127l272 -883l662 883h143l-864 -1135q-66 -89 -118.5 -140.5t-120.5 -83.5t-148 -32q-81 0 -141 32t-88 89z" />
<glyph unicode="&#x424;" horiz-adv-x="1607" d="M150 602q0 167 98.5 309t274.5 228t392 92l31 135h117l-31 -137q248 -18 381 -143t133 -324q0 -167 -99.5 -309t-275.5 -228.5t-391 -93.5l-28 -131h-117l31 133q-249 18 -382.5 143.5t-133.5 325.5zM274 602q0 -152 109 -250.5t305 -111.5l203 884q-275 -15 -446 -161.5 t-171 -360.5zM805 240q271 15 443.5 162t172.5 360q0 153 -109 251t-304 111z" />
<glyph unicode="&#x425;" horiz-adv-x="1320" d="M-74 0l703 709l-371 657h137l322 -580l565 580h160l-662 -672l391 -694h-133l-348 618l-604 -618h-160z" />
<glyph unicode="&#x426;" horiz-adv-x="1468" d="M59 0l299 1366h117l-276 -1260h866l276 1260h119l-278 -1260h123l-78 -358h-117l55 252h-1106z" />
<glyph unicode="&#x427;" horiz-adv-x="1218" d="M238 1016l77 350h117l-76 -350q-37 -166 35 -254t242 -88q169 0 344 43l143 649h117l-299 -1366h-117l133 612q-184 -45 -354 -45q-225 0 -315.5 122t-46.5 327z" />
<glyph unicode="&#x428;" horiz-adv-x="1970" d="M59 0l299 1366h117l-276 -1260h639l276 1260h119l-277 -1260h639l277 1260h117l-299 -1366h-1631z" />
<glyph unicode="&#x429;" horiz-adv-x="1996" d="M59 0l299 1366h117l-276 -1260h639l276 1260h119l-277 -1260h639l277 1260h117l-277 -1260h123l-78 -358h-119l56 252h-1635z" />
<glyph unicode="&#x42a;" horiz-adv-x="1517" d="M238 1260l22 106h565l-125 -567h363q157 0 257.5 -100.5t100.5 -241.5q0 -65 -17.5 -128.5t-56.5 -123.5t-96 -105t-143 -72.5t-190 -27.5h-510l276 1260h-446zM547 106h381q118 0 203.5 49t125 125t39.5 169q0 99 -73 171t-181 72h-364z" />
<glyph unicode="&#x42b;" horiz-adv-x="1544" d="M59 0l299 1366h117l-123 -567h361q158 0 259 -100.5t101 -241.5q0 -65 -17.5 -128.5t-57 -123.5t-96.5 -105t-143 -72.5t-190 -27.5h-510zM199 106h381q118 0 203.5 49t125 125t39.5 169q0 99 -73 171t-183 72h-364zM1147 0l299 1366h117l-299 -1366h-117z" />
<glyph unicode="&#x42c;" d="M59 0l299 1366h117l-123 -567h361q158 0 259 -100.5t101 -241.5q0 -65 -17.5 -128.5t-57 -123.5t-96.5 -105t-143 -72.5t-190 -27.5h-510zM199 106h381q118 0 203.5 49t125 125t39.5 169q0 99 -73 171t-183 72h-364z" />
<glyph unicode="&#x42d;" horiz-adv-x="1376" d="M25 268l110 51q67 -122 180 -179.5t254 -57.5q137 0 264 66.5t221 197.5t124 301h-775l23 107h762q2 12 2 39q0 221 -134 355t-360 134q-207 0 -385 -156l-84 72q101 95 225.5 143t252.5 48q269 0 440.5 -163.5t171.5 -428.5q0 -145 -41.5 -276t-114.5 -229 t-168.5 -170.5t-206 -109.5t-225.5 -37q-181 0 -320 76t-216 217z" />
<glyph unicode="&#x42e;" horiz-adv-x="1994" d="M59 0l299 1366h117l-133 -610h260q74 276 287.5 454.5t490.5 178.5q189 0 323 -87.5t190.5 -241.5t27.5 -347q-23 -153 -93.5 -289t-174.5 -235t-242 -156.5t-289 -57.5q-190 0 -324 87t-190 240.5t-26 346.5h-263l-143 -649h-117zM707 655q-28 -167 14.5 -297 t150.5 -203t265 -73q122 0 234 48t198 131t146 199t81 249q43 254 -76 413.5t-354 159.5q-164 0 -305 -81t-233.5 -223.5t-120.5 -322.5z" />
<glyph unicode="&#x42f;" horiz-adv-x="1216" d="M-8 0l524 573q-72 11 -137.5 50t-112.5 114.5t-47 171.5q0 91 33 172.5t95.5 145.5t161 101.5t220.5 37.5h508l-303 -1366h-117l125 565h-287l-510 -565h-153zM346 915q0 -104 78 -173.5t190 -69.5h351l129 588h-381q-171 0 -269 -100t-98 -245z" />
<glyph unicode="&#x430;" d="M92 381q0 125 38 240t104.5 202t165 139t212.5 52q118 0 211 -52.5t146 -140.5l35 168h108l-219 -989h-109l35 150q-64 -81 -151 -128t-189 -47q-173 0 -280 108.5t-107 297.5zM209 399q0 -151 81.5 -239t217.5 -88q100 0 191 54.5t145 135.5l104 475 q-39 78 -125.5 129.5t-201.5 51.5q-90 0 -168.5 -44.5t-131 -117t-82.5 -166t-30 -191.5z" />
<glyph unicode="&#x431;" horiz-adv-x="1181" d="M92 410q0 149 72 327q92 248 250 369.5t407 153.5q159 26 223 49.5t72 56.5h101q-8 -40 -38 -72t-65.5 -51t-94 -35.5t-101 -24.5t-109.5 -18q-126 -19 -218 -53t-154.5 -86.5t-102 -111t-74.5 -140.5q70 108 173.5 174t232.5 66q186 0 296.5 -118.5t110.5 -315.5 q0 -156 -70 -294.5t-196.5 -224.5t-278.5 -86q-199 0 -317.5 119t-118.5 316zM209 414q0 -157 85 -249.5t236 -92.5q120 0 219 72.5t153 187.5t54 243q0 157 -85 250t-236 93q-120 0 -219 -72.5t-153 -188t-54 -243.5z" />
<glyph unicode="&#x432;" horiz-adv-x="1107" d="M55 0l217 989h447q117 0 193.5 -57t76.5 -162q0 -97 -59.5 -171t-163.5 -95q61 -24 101 -81t40 -128q0 -129 -90.5 -212t-245.5 -83h-516zM182 96h389q98 0 162 58.5t64 146.5q0 70 -48 116t-133 46h-354zM283 557h391q93 0 146.5 57.5t53.5 137.5q0 69 -52.5 106 t-135.5 37h-328z" />
<glyph unicode="&#x433;" horiz-adv-x="870" d="M55 0l217 989h650l-23 -94h-541l-196 -895h-107z" />
<glyph unicode="&#x434;" horiz-adv-x="1132" d="M-129 -252l74 340q53 6 96 40t94.5 124.5t106.5 243.5l174 493h631l-195 -893h117l-76 -348h-109l58 252h-807l-58 -252h-106zM109 96h634l175 799h-429l-145 -412q-59 -165 -115 -256.5t-120 -130.5z" />
<glyph unicode="&#x435;" horiz-adv-x="1161" d="M94 412q0 122 43 233t116 192t175 129t215 48q193 0 306.5 -121t113.5 -307q0 -58 -16 -125h-836q-4 -24 -4 -58q0 -144 94 -239.5t268 -95.5q78 0 157.5 27t141.5 79l41 -78q-70 -54 -160.5 -87.5t-183.5 -33.5q-219 0 -345 120t-126 317zM221 545h737q3 15 3 45 q0 149 -87 240.5t-243 91.5q-147 0 -265 -111t-145 -266z" />
<glyph unicode="&#x436;" horiz-adv-x="1423" d="M-72 0l578 543l-363 446h133l383 -477l105 477h108l-100 -459l571 459h150l-559 -446l340 -543h-133l-297 475l-103 -80l-86 -395h-108l86 395l-60 72l-493 -467h-152z" />
<glyph unicode="&#x437;" horiz-adv-x="1062" d="M23 147l69 64q119 -143 365 -143q142 0 242 60t100 153q0 84 -86 130t-213 46h-238l21 90h229q169 0 273 53t104 160q0 78 -71.5 120t-199.5 42q-226 0 -399 -129l-51 73q197 148 457 148q188 0 285.5 -65t97.5 -181q0 -66 -34 -119t-87 -84t-107.5 -48.5t-105.5 -20.5 q40 -6 79 -21.5t75.5 -41.5t58.5 -67.5t22 -91.5q0 -90 -64.5 -159.5t-167 -104.5t-222.5 -35q-302 0 -432 172z" />
<glyph unicode="&#x438;" horiz-adv-x="1105" d="M55 0l217 989h107l-182 -823l745 823h105l-218 -989h-106l182 836l-747 -836h-103z" />
<glyph unicode="&#x439;" horiz-adv-x="1105" d="M55 0l217 989h107l-182 -823l745 823h105l-218 -989h-106l182 836l-747 -836h-103zM354 1288l68 51q36 -72 104.5 -112.5t161.5 -40.5t180 40.5t154 112.5l51 -51q-81 -84 -184.5 -132t-212.5 -48q-108 0 -192.5 48t-129.5 132z" />
<glyph unicode="&#x43a;" horiz-adv-x="1034" d="M55 0l219 989h107l-125 -557l700 557h150l-561 -446l340 -543h-131l-297 477l-230 -180l-65 -297h-107z" />
<glyph unicode="&#x43b;" horiz-adv-x="1105" d="M-78 -25l21 93q73 0 145 99t154 329l174 493h631l-218 -989h-106l195 895h-429l-145 -412q-97 -276 -195.5 -392t-226.5 -116z" />
<glyph unicode="&#x43c;" horiz-adv-x="1265" d="M55 0l217 989h140l145 -803l498 803h151l-217 -989h-108l184 844l-522 -844h-39l-158 844l-184 -844h-107z" />
<glyph unicode="&#x43d;" horiz-adv-x="1105" d="M55 0l226 989h106l-96 -426h559l98 426h107l-226 -989h-106l106 467h-561l-106 -467h-107z" />
<glyph unicode="&#x43e;" d="M92 410q0 156 70 294.5t196.5 224t278.5 85.5q199 0 317.5 -118.5t118.5 -315.5q0 -156 -70 -294.5t-196.5 -224.5t-278.5 -86q-199 0 -317.5 119t-118.5 316zM209 414q0 -157 85 -249.5t236 -92.5q120 0 219 72.5t153 187.5t54 243q0 157 -85 250t-236 93 q-120 0 -219 -72.5t-153 -188t-54 -243.5z" />
<glyph unicode="&#x43f;" horiz-adv-x="1105" d="M55 0l226 989h774l-226 -989h-106l203 895h-559l-205 -895h-107z" />
<glyph unicode="&#x440;" horiz-adv-x="1161" d="M-29 -377l303 1366h107l-33 -149q62 81 149.5 127.5t190.5 46.5q172 0 278.5 -109.5t106.5 -298.5q0 -98 -23.5 -192t-69.5 -173t-108 -139t-144 -93.5t-173 -33.5q-119 0 -211 52.5t-145 140.5l-121 -545h-107zM217 252q39 -78 126 -129t202 -51q91 0 169.5 44 t130.5 116.5t81.5 165t29.5 190.5q0 151 -81.5 240.5t-217.5 89.5q-99 0 -189 -54.5t-146 -136.5z" />
<glyph unicode="&#x441;" horiz-adv-x="1011" d="M94 414q0 161 72 299t199 219.5t278 81.5q248 0 354 -180l-82 -62q-41 73 -112 109.5t-156 36.5q-131 0 -233.5 -73t-154.5 -187t-52 -246q0 -163 94 -251.5t244 -88.5q81 0 150 34t118 93l61 -74q-143 -150 -339 -150t-318.5 116.5t-122.5 322.5z" />
<glyph unicode="&#x442;" horiz-adv-x="800" d="M141 895l21 94h690l-23 -94h-290l-197 -895h-106l194 895h-289z" />
<glyph unicode="&#x443;" horiz-adv-x="985" d="M-94 -381l41 102q36 -18 96 -18q42 0 77.5 24.5t78.5 88.5l116 178l-192 995h115l165 -864l551 864h125l-780 -1206q-59 -94 -125.5 -139t-150.5 -45q-65 0 -117 20z" />
<glyph unicode="&#x444;" horiz-adv-x="1581" d="M94 350q0 119 33.5 237.5t90.5 213.5t141.5 154t177.5 59q94 0 166.5 -50.5t103.5 -134.5l119 537h106l-114 -526q127 174 284 174q136 0 207.5 -104.5t71.5 -270.5q0 -119 -33.5 -237.5t-90.5 -213.5t-141.5 -154t-177.5 -59q-94 0 -166.5 50.5t-103.5 134.5l-119 -537 h-106l114 527q-122 -175 -282 -175q-137 0 -209 104.5t-72 270.5zM205 362q0 -138 55.5 -214t153.5 -76q144 0 266 178l108 487q-21 74 -86 127.5t-149 53.5q-98 0 -180 -85.5t-125 -212t-43 -258.5zM788 252q20 -74 85 -127t151 -53q97 0 179 85t125.5 212.5t43.5 259.5 q0 137 -56 213t-155 76q-138 0 -266 -177z" />
<glyph unicode="&#x445;" horiz-adv-x="980" d="M-76 0l502 508l-260 481h121l215 -407l395 407h135l-477 -481l281 -508h-121l-232 436l-424 -436h-135z" />
<glyph unicode="&#x446;" horiz-adv-x="1132" d="M55 0l217 989h107l-197 -893h559l199 893h107l-197 -893h119l-76 -348h-109l58 252h-787z" />
<glyph unicode="&#x447;" horiz-adv-x="1095" d="M193 678l69 311h107l-64 -287q-32 -150 20 -207t189 -57q78 0 165 19.5t142 48.5l109 483h106l-217 -989h-106l90 418q-69 -32 -160 -53t-172 -21q-184 0 -250.5 77.5t-27.5 256.5z" />
<glyph unicode="&#x448;" horiz-adv-x="1591" d="M55 0l217 989h107l-197 -893h467l199 893h106l-196 -893h469l198 893h107l-217 -989h-1260z" />
<glyph unicode="&#x449;" horiz-adv-x="1624" d="M55 0l217 989h107l-197 -893h467l199 893h106l-196 -893h469l198 893h107l-197 -893h119l-76 -348h-108l57 252h-1272z" />
<glyph unicode="&#x44a;" horiz-adv-x="1222" d="M141 895l21 94h397l-90 -403h369q137 0 204.5 -80t49.5 -201q-18 -128 -115.5 -216.5t-243.5 -88.5h-497l194 895h-289zM362 96h379q97 0 160.5 56t77.5 147q16 88 -25.5 140.5t-136.5 52.5h-368z" />
<glyph unicode="&#x44b;" horiz-adv-x="1400" d="M55 0l217 989h107l-90 -403h344q131 0 205.5 -68t74.5 -182q0 -139 -96 -237.5t-252 -98.5h-510zM182 96h393q101 0 163.5 67t62.5 167q0 76 -49 119t-140 43h-344zM1016 0l217 989h108l-217 -989h-108z" />
<glyph unicode="&#x44c;" horiz-adv-x="1042" d="M55 0l217 989h107l-90 -403h344q131 0 205.5 -68t74.5 -182q0 -139 -96 -237.5t-252 -98.5h-510zM182 96h393q101 0 163.5 67t62.5 167q0 76 -49 119t-140 43h-344z" />
<glyph unicode="&#x44d;" horiz-adv-x="1011" d="M72 156l78 59q41 -73 113 -110t157 -37q167 0 281.5 110t148.5 277h-539l21 96h530v24q0 165 -94 256t-242 91q-81 0 -152 -34t-120 -93l-59 69q143 150 340 150q196 0 318 -116.5t122 -322.5q0 -161 -72 -299t-199 -219.5t-278 -81.5q-247 0 -354 181z" />
<glyph unicode="&#x44e;" horiz-adv-x="1536" d="M55 0l217 989h107l-94 -430h190q46 194 190.5 324.5t335.5 130.5q200 0 319.5 -118.5t119.5 -315.5q0 -156 -70 -294.5t-196.5 -224.5t-278.5 -86q-199 0 -317.5 119t-118.5 316q0 37 2 55h-197l-102 -465h-107zM575 414q0 -157 85.5 -249.5t236.5 -92.5q120 0 219 72.5 t153 187.5t54 243q0 157 -85.5 250t-236.5 93q-120 0 -219 -72.5t-153 -188t-54 -243.5z" />
<glyph unicode="&#x44f;" horiz-adv-x="1099" d="M25 0l368 412q-95 14 -153 77t-58 164q0 139 95 237.5t251 98.5h514l-217 -989h-108l88 403h-297l-350 -403h-133zM293 659q0 -74 46 -117.5t120 -43.5h366l88 397h-393q-102 0 -164.5 -67.5t-62.5 -168.5z" />
<glyph unicode="&#x451;" horiz-adv-x="1161" d="M94 412q0 122 43 233t116 192t175 129t215 48q193 0 306.5 -121t113.5 -307q0 -58 -16 -125h-836q-4 -24 -4 -58q0 -144 94 -239.5t268 -95.5q78 0 157.5 27t141.5 79l41 -78q-70 -54 -160.5 -87.5t-183.5 -33.5q-219 0 -345 120t-126 317zM221 545h737q3 15 3 45 q0 149 -87 240.5t-243 91.5q-147 0 -265 -111t-145 -266zM459 1223q0 34 26 59t60 25q29 0 48 -19.5t19 -48.5q0 -34 -25.5 -59t-60.5 -25q-28 0 -47.5 19.5t-19.5 48.5zM877 1223q0 34 26 59t60 25q29 0 48 -19.5t19 -48.5q0 -34 -25.5 -59t-60.5 -25q-28 0 -47.5 19.5 t-19.5 48.5z" />
<glyph unicode="&#x452;" horiz-adv-x="1107" d="M57 0l240 1102h-147l16 78h147l43 186h107l-41 -186h328l-15 -78h-332l-55 -262q74 71 183 122.5t210 51.5q154 0 216.5 -77t27.5 -241l-182 -823q-29 -135 -115 -204.5t-215 -69.5q-64 0 -106 17.5t-78 57.5l63 84q52 -67 131 -67q77 0 134.5 45t78.5 137l174 801 q30 135 -19 189.5t-165 54.5q-92 0 -192 -49.5t-166 -120.5l-164 -748h-107z" />
<glyph unicode="&#x453;" horiz-adv-x="870" d="M55 0l217 989h650l-23 -94h-541l-196 -895h-107zM530 1139l381 295h131l-417 -295h-95z" />
<glyph unicode="&#x454;" horiz-adv-x="1011" d="M94 414q0 161 72 299t199 219.5t278 81.5q248 0 354 -180l-77 -58q-41 71 -113.5 108.5t-157.5 37.5q-163 0 -277 -105t-151 -266h539l-21 -96h-532v-41q0 -165 94 -255.5t242 -90.5q81 0 152 34.5t120 92.5l59 -70q-143 -150 -339 -150t-318.5 116.5t-122.5 322.5z" />
<glyph unicode="&#x455;" horiz-adv-x="940" d="M16 150l76 73q41 -66 128.5 -111.5t195.5 -45.5q118 0 190 60.5t72 143.5q0 43 -29 77t-75.5 58.5t-103 46.5t-113 46.5t-103 53t-75.5 72t-29 97.5q0 125 97 209t263 84q122 0 219 -46.5t141 -115.5l-69 -70q-33 60 -117.5 101t-181.5 41q-110 0 -177 -51t-67 -128 q0 -41 29 -73.5t75.5 -55t103 -44t113 -46.5t103 -54.5t75.5 -75.5t29 -103q0 -131 -100 -224.5t-272 -93.5q-273 0 -398 175z" />
<glyph unicode="&#x456;" horiz-adv-x="438" d="M55 0l219 989h107l-219 -989h-107zM295 1217q0 39 28.5 64.5t63.5 25.5q32 0 53 -21t21 -51q0 -39 -28.5 -64.5t-63.5 -25.5q-31 0 -52.5 21.5t-21.5 50.5z" />
<glyph unicode="&#x457;" horiz-adv-x="438" d="M55 0l219 989h107l-219 -989h-107zM94 1223q0 34 26 59t60 25q29 0 48.5 -19.5t19.5 -48.5q0 -34 -25.5 -59t-60.5 -25q-28 0 -48 19.5t-20 48.5zM512 1223q0 34 26 59t60 25q29 0 48.5 -19.5t19.5 -48.5q0 -34 -25.5 -59t-60.5 -25q-28 0 -48 19.5t-20 48.5z" />
<glyph unicode="&#x458;" horiz-adv-x="438" d="M-371 -315l58 77q24 -31 64 -51t83 -20q149 0 193 182l247 1116h107l-248 -1116q-31 -139 -99.5 -206.5t-185.5 -67.5q-148 0 -219 86zM295 1217q0 39 28.5 64.5t63.5 25.5q32 0 53 -21t21 -51q0 -39 -28.5 -64.5t-63.5 -25.5q-31 0 -52.5 21.5t-21.5 50.5z" />
<glyph unicode="&#x459;" horiz-adv-x="1712" d="M-80 -25l21 93q75 0 147 99t154 329l174 493h631l-89 -403h342q131 0 206 -68t75 -182q0 -139 -95.5 -237.5t-250.5 -98.5h-512l195 895h-429l-145 -412q-97 -277 -195.5 -392.5t-228.5 -115.5zM850 96h393q102 0 163.5 66.5t61.5 167.5q0 76 -48.5 119t-139.5 43h-344z " />
<glyph unicode="&#x45a;" horiz-adv-x="1712" d="M55 0l217 989h107l-94 -430h561l94 430h107l-95 -430h361q124 0 196 -65t72 -172q0 -133 -91.5 -227.5t-240.5 -94.5h-526l102 465h-561l-102 -465h-107zM850 96h407q95 0 153 62t58 155q0 71 -45.5 111.5t-130.5 40.5h-360z" />
<glyph unicode="&#x45b;" horiz-adv-x="1107" d="M57 0l242 1102h-145l16 78h147l41 186h107l-41 -186h332l-19 -78h-329l-58 -262q76 75 168.5 124.5t188.5 49.5q131 0 209.5 -62t78.5 -180q0 -38 -12 -84l-152 -688h-106l147 672q13 58 13 71q0 88 -60 131.5t-161 43.5q-86 0 -174.5 -50.5t-161.5 -124.5l-164 -743 h-107z" />
<glyph unicode="&#x45c;" horiz-adv-x="1034" d="M55 0l219 989h107l-125 -557l700 557h150l-561 -446l340 -543h-131l-297 477l-230 -180l-65 -297h-107zM563 1139l381 295h131l-418 -295h-94z" />
<glyph unicode="&#x45e;" horiz-adv-x="985" d="M-94 -381l41 102q36 -18 96 -18q42 0 77.5 24.5t78.5 88.5l116 178l-192 995h115l165 -864l551 864h125l-780 -1206q-59 -94 -125.5 -139t-150.5 -45q-65 0 -117 20zM289 1288l67 51q36 -72 105 -112.5t162 -40.5t179.5 40.5t153.5 112.5l52 -51q-81 -84 -185 -132 t-213 -48q-108 0 -192 48t-129 132z" />
<glyph unicode="&#x45f;" horiz-adv-x="1105" d="M55 0l217 989h107l-197 -893h559l199 893h107l-218 -989h-335l-56 -258h-106l55 258h-332z" />
<glyph unicode="&#x490;" horiz-adv-x="1110" d="M59 0l299 1366h748l55 254h119l-78 -360h-747l-279 -1260h-117z" />
<glyph unicode="&#x491;" horiz-adv-x="870" d="M55 0l217 989h541l55 258h109l-78 -352h-541l-196 -895h-107z" />
<glyph unicode="&#x2000;" horiz-adv-x="904" />
<glyph unicode="&#x2001;" horiz-adv-x="1808" />
<glyph unicode="&#x2002;" horiz-adv-x="904" />
<glyph unicode="&#x2003;" horiz-adv-x="1808" />
<glyph unicode="&#x2004;" horiz-adv-x="602" />
<glyph unicode="&#x2005;" horiz-adv-x="452" />
<glyph unicode="&#x2006;" horiz-adv-x="301" />
<glyph unicode="&#x2007;" horiz-adv-x="301" />
<glyph unicode="&#x2008;" horiz-adv-x="226" />
<glyph unicode="&#x2009;" horiz-adv-x="361" />
<glyph unicode="&#x200a;" horiz-adv-x="100" />
<glyph unicode="&#x2010;" horiz-adv-x="614" d="M49 446l21 99h491l-20 -99h-492z" />
<glyph unicode="&#x2011;" horiz-adv-x="614" d="M49 446l21 99h491l-20 -99h-492z" />
<glyph unicode="&#x2012;" horiz-adv-x="614" d="M49 446l21 99h491l-20 -99h-492z" />
<glyph unicode="&#x2013;" horiz-adv-x="1214" d="M49 446l21 99h1091l-20 -99h-1092z" />
<glyph unicode="&#x2014;" horiz-adv-x="1705" d="M49 446l21 99h1583l-21 -99h-1583z" />
<glyph unicode="&#x2018;" horiz-adv-x="448" d="M238 1087q0 84 62.5 169t148.5 130l49 -53q-57 -29 -102 -77t-58 -95h14q28 0 49 -22t21 -54q0 -39 -28.5 -67.5t-67.5 -28.5t-63.5 25t-24.5 73z" />
<glyph unicode="&#x2019;" horiz-adv-x="448" d="M236 1042q57 29 101.5 77t57.5 95h-14q-28 0 -49 22t-21 52q0 41 29 69.5t68 28.5q38 0 63 -26t25 -72q0 -84 -62.5 -169t-148.5 -130z" />
<glyph unicode="&#x201a;" horiz-adv-x="448" d="M-37 -184q57 29 102 77t58 95h-14q-28 0 -49 21.5t-21 51.5q0 41 28.5 70t67.5 29q38 0 63 -26.5t25 -72.5q0 -85 -63 -170.5t-148 -130.5z" />
<glyph unicode="&#x201c;" horiz-adv-x="737" d="M258 1087q0 85 62 169.5t147 129.5l51 -53q-57 -29 -102 -77t-58 -95h15q28 0 48.5 -22t20.5 -54q0 -39 -29.5 -67.5t-68.5 -28.5q-37 0 -61.5 25.5t-24.5 72.5zM547 1087q0 85 62 169.5t147 129.5l49 -53q-57 -30 -102 -78t-58 -94h14q30 0 51 -22t21 -54 q0 -39 -29.5 -67.5t-68.5 -28.5q-38 0 -62 25t-24 73z" />
<glyph unicode="&#x201d;" horiz-adv-x="737" d="M236 1042q57 29 101.5 77t57.5 95h-14q-28 0 -49 22t-21 52q0 41 29 69.5t68 28.5q38 0 63 -26t25 -72q0 -84 -62.5 -169t-148.5 -130zM524 1042q57 29 102 77t58 95h-14q-29 0 -49.5 21.5t-20.5 52.5q0 41 28.5 69.5t67.5 28.5q38 0 62 -26t24 -72q0 -85 -62 -169.5 t-147 -129.5z" />
<glyph unicode="&#x201e;" horiz-adv-x="737" d="M-37 -184q57 29 102 77t58 95h-14q-28 0 -49 21.5t-21 51.5q0 41 28.5 70t67.5 29q38 0 63 -26.5t25 -72.5q0 -85 -63 -170.5t-148 -130.5zM252 -184q57 30 102 78t58 94h-15q-29 0 -50 21t-21 52q0 41 29.5 70t68.5 29q38 0 62 -26.5t24 -72.5q0 -85 -62 -171t-147 -130 z" />
<glyph unicode="&#x2020;" horiz-adv-x="526" d="M180 1096l17 71l180 -6l43 225h80l-60 -225l185 6l-17 -71l-180 8l-88 -434h-80l105 434z" />
<glyph unicode="&#x2021;" horiz-adv-x="526" d="M68 588l16 71l178 -8l103 453l-185 -8l17 71l180 -6l43 225h80l-60 -225l185 6l-17 -71l-180 8l-100 -453l184 8l-16 -71l-181 6l-43 -225h-79l59 225z" />
<glyph unicode="&#x2022;" horiz-adv-x="733" d="M154 475q0 93 70.5 162.5t164.5 69.5q82 0 136.5 -54.5t54.5 -136.5q0 -93 -71.5 -161t-166.5 -68q-80 0 -134 54.5t-54 133.5z" />
<glyph unicode="&#x2026;" horiz-adv-x="1345" d="M39 63q0 40 28.5 68.5t69.5 28.5q34 0 58 -24.5t24 -59.5q0 -40 -29 -68t-69 -28q-35 0 -58.5 24t-23.5 59zM487 63q0 40 29.5 68.5t69.5 28.5q35 0 58.5 -24.5t23.5 -59.5q0 -39 -29.5 -67.5t-69.5 -28.5q-35 0 -58.5 24t-23.5 59zM936 63q0 40 29 68.5t69 28.5 q35 0 58.5 -24.5t23.5 -59.5q0 -40 -29 -68t-69 -28q-35 0 -58.5 24t-23.5 59z" />
<glyph unicode="&#x202f;" horiz-adv-x="361" />
<glyph unicode="&#x2030;" horiz-adv-x="2185" d="M152 0l1173 1366h94l-1175 -1366h-92zM184 989q0 173 106.5 285t252.5 112q125 0 210 -76t85 -196q0 -173 -106.5 -285t-252.5 -112q-125 0 -210 75.5t-85 196.5zM279 997q0 -88 57.5 -145t146.5 -57q104 0 182 90t78 219q0 88 -57.5 145.5t-146.5 57.5 q-105 0 -182.5 -89.5t-77.5 -220.5zM715 250q0 173 106.5 285t251.5 112q127 0 212 -76.5t85 -197.5q0 -173 -106.5 -285.5t-251.5 -112.5q-126 0 -211.5 77t-85.5 198zM811 258q0 -88 57.5 -145.5t145.5 -57.5q105 0 182.5 89.5t77.5 220.5q0 87 -58 144.5t-145 57.5 q-105 0 -182.5 -89.5t-77.5 -219.5zM1425 250q0 173 107 285t252 112q127 0 212 -76.5t85 -197.5q0 -173 -107 -285.5t-252 -112.5q-126 0 -211.5 77t-85.5 198zM1522 258q0 -88 57 -145.5t145 -57.5q105 0 183 89.5t78 220.5q0 87 -57.5 144.5t-145.5 57.5 q-105 0 -182.5 -89.5t-77.5 -219.5z" />
<glyph unicode="&#x2039;" horiz-adv-x="567" d="M59 498l410 362h125l-418 -373l238 -358h-109z" />
<glyph unicode="&#x203a;" horiz-adv-x="567" d="M-23 129l418 373l-237 358h108l246 -368l-410 -363h-125z" />
<glyph unicode="&#x2044;" horiz-adv-x="266" d="M-461 0l1174 1366h94l-1176 -1366h-92z" />
<glyph unicode="&#x205f;" horiz-adv-x="452" />
<glyph unicode="&#x20ac;" horiz-adv-x="1413" d="M70 496l18 84h96q0 97 27 208h-76l19 84h82q57 156 167.5 274.5t250 180.5t288.5 62q180 0 319.5 -76t217.5 -217l-113 -52q-68 122 -180 180t-252 58q-177 0 -333.5 -110.5t-233.5 -299.5h692l-21 -84h-700q-27 -111 -27 -208h682l-18 -84h-660q23 -191 154 -302.5 t336 -111.5q207 0 385 156l84 -70q-101 -97 -224 -145t-251 -48q-251 0 -419.5 142.5t-191.5 378.5h-118z" />
<glyph unicode="&#x2122;" horiz-adv-x="929" d="M215 1313l10 53h312l-11 -53h-127l-88 -398h-57l88 398h-127zM512 915l98 451h88l60 -328l203 328h88l-99 -451h-57l82 373l-236 -373h-16l-72 373l-82 -373h-57z" />
<glyph unicode="&#x2202;" d="M92 395q0 123 41.5 234.5t111.5 192t166 128t201 47.5t199.5 -52.5t144.5 -162.5q-117 311 -450 557l80 82q223 -162 355 -373t132 -432q0 -176 -68.5 -322.5t-192.5 -232.5t-277 -86q-195 0 -319 119.5t-124 300.5zM209 410q0 -150 87.5 -244t240.5 -94 q112 0 207.5 67.5t151.5 183t56 250.5q0 60 -19.5 116.5t-57.5 105t-103 77.5t-149 29q-169 0 -291.5 -143t-122.5 -348z" />
<glyph unicode="&#x2206;" horiz-adv-x="1325" d="M-80 0l860 1366h146l258 -1366h-1264zM121 106h919l-209 1135z" />
<glyph unicode="&#x220f;" horiz-adv-x="1378" d="M147 -184l320 1444h-227l22 106h1235l-22 -106h-228l-319 -1444h-119l319 1444h-542l-322 -1444h-117z" />
<glyph unicode="&#x2211;" d="M-33 -184l23 106l651 688l-352 650l22 106h930l-22 -106h-795l358 -660l-643 -678h783l-23 -106h-932z" />
<glyph unicode="&#x221a;" horiz-adv-x="1521" d="M178 635l449 166l131 -686l788 1251h94l-858 -1366h-94l-131 692l-367 -137z" />
<glyph unicode="&#x221e;" horiz-adv-x="1312" d="M94 627q0 156 97 271.5t247 115.5q103 0 177.5 -65t101.5 -171q141 236 313 236q125 0 196.5 -73t71.5 -196q0 -101 -42 -189t-122.5 -143t-181.5 -55q-102 0 -175.5 65t-100.5 169q-142 -234 -314 -234q-125 0 -196.5 73t-71.5 196zM182 633q0 -83 52 -136t137 -53 q87 0 155.5 67t130.5 181q-17 113 -75 174.5t-148 61.5q-113 0 -182.5 -85.5t-69.5 -209.5zM737 680q17 -113 74 -174.5t147 -61.5q112 0 181 86.5t69 210.5q0 81 -50.5 134t-135.5 53q-46 0 -87.5 -19.5t-77 -57.5t-62.5 -77t-58 -94z" />
<glyph unicode="&#x222b;" horiz-adv-x="690" d="M-121 -205l19 88h125q68 0 113 44t63 122l282 1270q27 126 101 190t184 64h127l-21 -88h-127q-66 0 -111 -44t-63 -122l-282 -1270q-27 -126 -101 -190t-184 -64h-125z" />
<glyph unicode="&#x2248;" horiz-adv-x="1015" d="M45 442l23 97q81 -72 206 -72q55 0 104 13t87 31.5t77 36.5t92.5 31t115.5 13q132 0 215 -57l-23 -97q-82 70 -211 70q-66 0 -126.5 -19.5t-101 -43t-105.5 -43t-140 -19.5q-127 0 -213 59zM133 834l21 96q81 -70 208 -70q55 0 103.5 13t86.5 31t77 36.5t92.5 31.5 t114.5 13q127 0 215 -57l-21 -99q-84 72 -211 72q-66 0 -126.5 -19.5t-101 -43t-106.5 -43t-141 -19.5q-129 0 -211 58z" />
<glyph unicode="&#x2260;" horiz-adv-x="1015" d="M45 442l21 84h299l270 316h-500l19 86h555l213 248h100l-213 -248h242l-19 -86h-297l-272 -316h500l-19 -84h-555l-215 -252h-98l217 252h-248z" />
<glyph unicode="&#x2264;" horiz-adv-x="1015" d="M-51 0l16 84h899l-18 -84h-897zM92 655l19 78l999 465l-25 -106l-878 -404l700 -399l-20 -94z" />
<glyph unicode="&#x2265;" horiz-adv-x="1015" d="M-53 0l18 84h897l-18 -84h-897zM-10 195l24 104l881 399l-702 404l20 96l795 -465l-17 -78z" />
<glyph unicode="&#x25ca;" horiz-adv-x="768" d="M80 684l473 682h43l174 -682l-475 -684h-43zM156 676l135 -584l403 600l-137 582z" />
<glyph unicode="&#x25fc;" horiz-adv-x="993" d="M0 0v993h993v-993h-993z" />
<glyph unicode="&#xf8ff;" horiz-adv-x="1366" d="M37 285q0 100 77.5 179t178.5 79h186l64 280h-135q-93 0 -149 59.5t-56 155.5q0 98 79.5 170t180.5 72q86 0 143.5 -57.5t57.5 -143.5q0 -24 -7 -59l-28 -129h280l39 178q22 94 92.5 152.5t163.5 58.5q85 0 145 -57.5t60 -141.5q0 -101 -77.5 -179.5t-178.5 -78.5h-186 l-64 -280h129q95 0 153 -59.5t58 -155.5q0 -98 -80 -170t-182 -72q-86 0 -143.5 57.5t-57.5 143.5q0 29 6 59l31 127h-280l-41 -176q-22 -94 -92.5 -152.5t-163.5 -58.5q-85 0 -144 57.5t-59 141.5zM111 293q0 -60 38.5 -99.5t96.5 -39.5q73 0 120.5 42.5t61.5 116.5l37 160 h-176q-73 0 -125.5 -53t-52.5 -127zM272 1036q0 -66 41 -105.5t109 -39.5h133l33 141q4 28 4 43q0 62 -38.5 98.5t-102.5 36.5q-73 0 -126 -50.5t-53 -123.5zM551 543h280l64 280h-281zM854 291q0 -63 39 -100t102 -37q72 0 124 51.5t52 124.5q0 66 -40.5 104.5t-106.5 38.5 h-135l-31 -139q-4 -16 -4 -43zM981 891h176q73 0 125.5 54.5t52.5 127.5q0 59 -38.5 98t-98.5 39q-71 0 -117.5 -41t-64.5 -116z" />
</font>
</defs>
</svg>
